<?xml version="1.0" standalone="no"?>
<!DOCTYPE svg PUBLIC "-//W3C//DTD SVG 1.1//EN" "http://www.w3.org/Graphics/SVG/1.1/DTD/svg11.dtd" >
<svg xmlns="http://www.w3.org/2000/svg">
<metadata>
This is a custom SVG webfont generated by Font Squirrel.
Copyright   : Generated in 2010 by FontLab Studio Copyright info pending
Designer    : Campivisivi
Foundry     : Campivisivi
</metadata>
<defs>
<font id="webfontVdsCBG96" horiz-adv-x="1083" >
<font-face units-per-em="2048" ascent="1536" descent="-512" />
<missing-glyph horiz-adv-x="479" />
<glyph unicode=" "  horiz-adv-x="479" />
<glyph unicode="&#x09;" horiz-adv-x="479" />
<glyph unicode="&#xa0;" horiz-adv-x="479" />
<glyph unicode="!" d="M512 0v164h82v-164h-82zM516 436v996h72v-996h-72z" />
<glyph unicode="&#x22;" horiz-adv-x="571" d="M102 1026v410h72v-410h-72zM391 1026v410h72v-410h-72z" />
<glyph unicode="#" d="M27 389v66h245v463h-245v65h245v389h74v-389h385v389h74v-389h246v-65h-246v-463h246v-66h-246v-389h-74v389h-385v-389h-74v389h-245zM346 455h385v463h-385v-463z" />
<glyph unicode="$" d="M129 1040q0 182 109 263q108 80 313 79q47 0 61 -2l31 238h72l-33 -242l256 -24l-8 -68q-43 4 -256 27l-74 -578q199 -35 281 -102q86 -70 86 -236q0 -219 -103 -315q-100 -94 -311 -94q-39 0 -51 2l-29 -234q-72 6 -72 15l29 223l-293 26l8 68q127 -16 293 -29l82 617 q-102 14 -168 37q-68 23 -119 59q-55 40 -79.5 104.5t-24.5 165.5zM203 1044q0 -160 71.5 -215t253.5 -84l76 570q-14 2 -53 2q-348 -1 -348 -273zM512 53h41q172 0 256 78t84 258q0 133 -68 189q-72 59 -235 86z" />
<glyph unicode="%" d="M59 1165q0 143 52 207q53 66 165.5 66t163.5 -64q53 -66 54 -211q0 -283 -218 -282q-111 0 -164 69.5t-53 214.5zM131 1165q0 -113 33 -166t112 -53q82 0 113 53q33 55 33 164q0 106 -33 160q-31 49 -113 49q-78 0 -112 -51q-33 -47 -33 -156zM381 12l295 1424l74 -15 l-295 -1423zM635 285q0 143 51 207q53 66 166 65q111 0 164 -65.5t53 -208.5q0 -283 -217 -283q-111 0 -164 68q-53 70 -53 217zM707 284.5q0 -110.5 32 -163.5q35 -55 113 -55q82 0 113 53q33 55 32 164q0 106 -32 159q-31 49 -113 50q-78 0 -113 -50q-32 -47 -32 -157.5z " />
<glyph unicode="&#x26;" horiz-adv-x="1431" d="M119 426q0 180 78 270q76 88 256 142q-70 76 -86 133q-18 61 -19 155q0 133 80 213q82 82 234 82q162 0 237 -80q76 -78 76 -217q0 -145 -78 -229t-260 -143l383 -379q43 131 63 299h72q-27 -219 -80 -353l287 -280l-49 -53l-269 266q-135 -270 -454 -270 q-258 0 -364.5 112.5t-106.5 331.5zM190 428q0 -190 94.5 -284.5t309.5 -94.5q281 0 397 254l-485 481q-175 -46 -246 -122q-70 -76 -70 -234zM420 1126q0 -160 92 -252l74 -73q176 61 248 129q70 68 69 196q0 229 -241.5 229t-241.5 -229z" />
<glyph unicode="'" horiz-adv-x="202" d="M61 1430h82l-10 -431h-67z" />
<glyph unicode="(" horiz-adv-x="530" d="M115 616q0 181 49 412q47 223 98 369l51 139h72q-39 -109 -55 -158q-29 -92 -86 -346q-53 -238 -54 -416q0 -341 179 -829l16 -43h-72l-55 139q-31 82 -88 320q-55 231 -55 413z" />
<glyph unicode=")" horiz-adv-x="530" d="M115 -256q51 139 55 152q29 90 86 333q53 227 53 408q0 170 -49 395q-51 238 -96 365l-49 139h71l56 -147q31 -84 88 -332q55 -240 55 -420q0 -181 -49 -405.5t-98 -356.5l-52 -131h-71z" />
<glyph unicode="*" d="M279 938l225 164l-223 164l41 55l225 -166l86 264l65 -20l-86 -266h277v-70h-281l86 -264l-65 -21l-86 266l-226 -161z" />
<glyph unicode="+" horiz-adv-x="837" d="M-100 479v70h475v475h74v-475h479v-70h-479v-479h-74v479h-475z" />
<glyph unicode="," horiz-adv-x="346" d="M96 -252l86 430h82l-104 -430h-64z" />
<glyph unicode="-" horiz-adv-x="899" d="M123 541v69h655v-69h-655z" />
<glyph unicode="." horiz-adv-x="505" d="M201 0v164h82v-164h-82z" />
<glyph unicode="/" d="M223 25l568 1413l67 -29l-567 -1411z" />
<glyph unicode="0" d="M70 645q0 215 30 359q31 147 95 225q68 82 147 112q84 31 199 31q123 0 204 -31q80 -29 146 -110q61 -76 92 -223q31 -143 31 -361q0 -186 -33 -323q-33 -133 -94 -205q-65 -74 -148 -105q-88 -33 -196 -32q-117 0 -199 30q-86 31 -147 103q-63 72 -95 204 q-32 142 -32 326zM147 643q0 -184 27 -297q27 -115 80 -180.5t120.5 -90t168.5 -24.5q131 0 213 45t131 180.5t49 370.5q0 262 -45 404q-47 150 -127 198q-84 53 -223 54q-137 0 -219 -51.5t-129 -200.5q-46 -144 -46 -408z" />
<glyph unicode="1" d="M184 1073l418 279h74v-1352h-74v1272l-383 -258z" />
<glyph unicode="2" d="M125 0v70l465 489q88 94 141 158q49 59 88 139q41 86 41 170q0 150 -86 213q-84 63 -258 64q-70 0 -162 -13q-63 -8 -149 -26l-58 -15l-10 70q195 53 381 53q209 0 313 -80q106 -82 107 -266q0 -135 -63.5 -239.5t-204.5 -251.5l-445 -463h756v-72h-856z" />
<glyph unicode="3" d="M106 29l13 69q219 -47 432 -47q348 4 348 316q0 170 -88 237q-88 66 -244 76h-274v70h272q100 0 197 75q98 76 98 211q0 145 -72 205q-74 61 -253 62q-104 0 -187 -11q-115 -14 -149 -22l-54 -13l-12 70q188 45 399 45q213 0 312 -82q94 -80 94 -256q0 -78 -23 -131 q-27 -61 -57 -90q-39 -35 -70 -53q-49 -29 -55 -31q-20 -6 -26 -6q135 -35 202.5 -108.5t67.5 -241.5q0 -200 -105 -295q-106 -96 -321 -96q-98 0 -209 12q-137 14 -174 22z" />
<glyph unicode="4" d="M68 291v61l419 1000h80l-411 -992h622v449h74v-449h201v-69h-201v-291h-74v291h-710z" />
<glyph unicode="5" d="M119 35l10 69q223 -49 416 -49q168 0 270 103q100 100 100 293q0 324 -350 323q-78 0 -174 -29q-76 -23 -141 -57l-51 -26l-70 8l39 682h762v-72h-692l-37 -541l26.5 13.5t28.5 15.5q41 23 129 47q102 29 182 29q426 0 426 -393q0 -229 -119 -349q-117 -117 -327 -116 q-203 0 -428 49z" />
<glyph unicode="6" d="M84 690q0 342 133 512t371 170q78 0 164 -6q125 -8 135 -10l49 -6l-8 -68q-162 20 -340 21q-203 0 -314 -146q-109 -143 -112 -424l57 25q57 25 158 49q98 25 178 24q446 0 446 -405q0 -209 -118 -328q-117 -117 -340 -116q-459 -1 -459 708zM160 662q8 -610 383 -611 q184 0 284 96q96 94 97 279q0 170 -97 252q-100 84 -274 84q-186 -6 -393 -100z" />
<glyph unicode="7" d="M121 1282v70h823v-133l-549 -1237l-71 28l542 1225v47h-745z" />
<glyph unicode="8" d="M49 344q0 157 67.5 233.5t209.5 135.5q-127 47 -190.5 118.5t-63.5 204.5q0 336 477 336q225 0 356 -84q129 -84 129 -254q0 -133 -67 -207q-70 -76 -211 -114q145 -41 221 -119q78 -82 78 -227q0 -211 -137 -299q-135 -86 -369 -86q-221 0 -360.5 86t-139.5 276z M129 346q0 -295 420 -295q203 0 315.5 69.5t112.5 244.5q0 82 -23 133q-25 55 -75 90q-45 31 -97 51q-16 6 -125 37h-239q-139 -33 -215 -109q-74 -74 -74 -221zM150 1034q0 -121 65 -186t203 -105h239q147 33 224 103q74 68 73 186q0 143 -104 207q-102 63 -301 64 q-197 0 -297 -62q-102 -62 -102 -207z" />
<glyph unicode="9" d="M96 924q0 205 123 327q121 121 328 121q242 0 354.5 -186.5t112.5 -521.5q0 -369 -129 -527q-129 -156 -385 -155q-76 0 -162 6q-129 8 -137 10l-49 6l8 68q162 -20 340 -21q221 0 327.5 135.5t110.5 427.5q-236 -90 -414 -90q-428 1 -428 400zM174 924q0 -170 88 -250 q90 -80 266 -80q160 0 412 92q-14 616 -393 617q-172 0 -272.5 -102.5t-100.5 -276.5z" />
<glyph unicode=":" horiz-adv-x="286" d="M158 0v164h82v-164h-82zM158 705v163h82v-163h-82z" />
<glyph unicode=";" horiz-adv-x="346" d="M76 -252l84 430h86l-107 -430h-63zM154 705v163h82v-163h-82z" />
<glyph unicode="&#x3c;" d="M129 602v74l711 469v-80l-645 -422l645 -444v-84q-633 430 -711 487z" />
<glyph unicode="=" d="M84 702v70h911v-70h-911zM86 356v70h911v-70h-911z" />
<glyph unicode="&#x3e;" d="M129 115v84l645 444l-645 422v80l711 -469v-74z" />
<glyph unicode="?" horiz-adv-x="788" d="M20 1397q229 55 340 55q199 0 306 -76q104 -74 104 -248q0 -94 -43 -174q-47 -86 -102 -139l-119 -110q-59 -53 -103 -115q-41 -59 -41 -123v-78h-71v84q0 70 43 137.5t102 120.5l119 113q57 57 100 131t43 153q0 139 -84 199q-82 57 -254 57q-102 0 -329 -57zM287 2v164 h82v-164h-82z" />
<glyph unicode="@" horiz-adv-x="2015" d="M123 535q0 508 221 723t688 215q463 0 662 -203q201 -205 200 -645v-35q0 -115 -10 -221q-8 -84 -22 -160q-12 -61 -39 -109q-25 -43 -49 -67q-23 -23 -64 -35q-37 -10 -68 -14q-41 -4 -81 -4q-70 0 -103 6q-37 6 -67.5 34.5t-49.5 88.5q-229 -127 -391 -127q-49 0 -86 6 q-41 6 -90 32q-52 28 -86 80q-35 55 -59 154q-25 102 -25 244q0 281 94 411q96 133 336 133q39 0 119 -14q74 -14 111 -27l41 -14v37h71v-410q0 -293 15 -401q14 -115 49 -143.5t121 -28.5q57 0 87.5 6t69.5 35q37 28 56 86q23 70 32 162q12 104 13 260v37q0 414 -181 596 q-180 184 -606 184q-434 0 -635 -197q-199 -197 -198 -675q0 -255 49 -424q49 -170 157.5 -268.5t256.5 -141.5q150 -43 370 -43l293 20l6 -67q-201 -18 -299 -19q-229 0 -399 46q-156 41 -281 149q-119 102 -174 289q-55 185 -55 459zM676 492q0 -137 26 -240 q25 -98 70 -137q49 -43 84 -54q47 -14 94 -14q164 0 377 123q-23 135 -22 444v308q-151 55 -271 55q-205 0 -282 -119q-76 -114 -76 -366z" />
<glyph unicode="A" horiz-adv-x="1234" d="M72 0l440 1434h217l436 -1430h-73l-138 436h-671l-138 -440h-73zM303 510h631l-260 854h-111z" />
<glyph unicode="B" horiz-adv-x="1282" d="M211 0v1434h491q209 0 311.5 -84t102.5 -265q0 -272 -198 -346q254 -70 253 -338q0 -221 -110 -311q-113 -90 -320 -90h-530zM285 70h456q168 0 263 75q92 74 92 256q0 297 -371 297h-440v-628zM285 766h440q163 0 240 80q76 78 75 239q0 150 -82 213q-84 66 -256 66 h-417v-598z" />
<glyph unicode="C" horiz-adv-x="1097" d="M119 711q0 162 10 250q12 104 43 202q31 96 88 158q53 57 148 94q92 37 221 37q98 0 182 -8q98 -10 145 -21l52 -10l-7 -72q-211 41 -372 41q-115 0 -193 -32q-82 -35 -127 -86q-47 -55 -71 -144q-23 -88 -33 -182q-8 -82 -8 -227.5t8 -227.5q10 -100 35 -180 q27 -86 73 -139q45 -51 125 -82t191 -31q57 0 159 10q45 4 152 21l61 10l7 -69q-223 -41 -379 -41q-157 0 -258 49q-102 49 -156 147q-55 100 -76 225q-20 122 -20 308z" />
<glyph unicode="D" horiz-adv-x="1335" d="M211 0v1434h532q131 0 226 -58q98 -59 151 -157q53 -96 78 -220q25 -119 25 -262q0 -131 -27 -268q-25 -123 -78 -233q-51 -104 -149 -173q-94 -63 -226 -63h-532zM285 70h458q111 0 193 59q82 61 125 160q41 96 63 213q20 104 21 235q0 127 -21 228q-23 113 -63 198 q-45 94 -125 148q-82 53 -193 53h-458v-1294z" />
<glyph unicode="E" horiz-adv-x="1169" d="M211 0v1434h838v-70h-764v-592h641v-70h-641v-632h764v-70h-838z" />
<glyph unicode="F" horiz-adv-x="1150" d="M211 0v1434h840v-70h-766v-647h643v-70h-643v-647h-74z" />
<glyph unicode="G" horiz-adv-x="1261" d="M123 711q0 178 24 307q27 135 80 229q58 101 166 154q104 51 266 51q219 0 451 -51l-6 -72q-262 53 -445 53q-143 0 -233 -45t-139 -139q-49 -96 -68 -207q-18 -115 -18 -280q0 -152 20 -279q18 -114 68 -203q51 -94 141 -135q92 -43 229 -43q51 0 154 10q41 4 156 21 q12 2 23.5 3t18.5 3t13 3t9 1h3v549h-307v70h381v-678q-283 -51 -451 -51q-303 0 -419 182q-117 181 -117 547z" />
<glyph unicode="H" horiz-adv-x="1423" d="M211 0v1434h74v-680h856v680h73v-1434h-73v684h-856v-684h-74z" />
<glyph unicode="I" horiz-adv-x="460" d="M195 0v1434h73v-1434h-73z" />
<glyph unicode="J" horiz-adv-x="620" d="M72 -80h106q18 0 72 12q39 8 53 27q10 12 27 53q14 37 18 90q4 70 4 134v1200h74v-609q0 -145 1 -350t1 -262q0 -51 -4 -121q-2 -37 -18 -90q-12 -43 -25 -65q-12 -25 -39 -43l-49 -25q-23 -12 -64 -14q-10 0 -35.5 -3.5t-35.5 -3.5h-86v70z" />
<glyph unicode="K" horiz-adv-x="1220" d="M211 0v1434h74v-691h264l450 691h88l-473 -721l506 -713h-94l-473 674h-268v-674h-74z" />
<glyph unicode="L" d="M211 0v1434h74v-1364h698v-70h-772z" />
<glyph unicode="M" horiz-adv-x="1740" d="M211 0v1434h158l501 -1321l506 1321h156v-1434h-74v1364h-28l-510 -1321h-103l-504 1321h-28v-1364h-74z" />
<glyph unicode="N" horiz-adv-x="1404" d="M211 0v1434h174l682 -1364h55v1364h74v-1434h-174l-684 1364h-53v-1364h-74z" />
<glyph unicode="O" horiz-adv-x="1341" d="M123 711q0 379 119 559q121 182 430 182q311 0 430 -180t119 -561q0 -393 -115 -559q-117 -170 -434 -170q-168 0 -273 45q-106 45 -168 143q-59 96 -84 223q-24 130 -24 318zM201 711q0 -174 18 -287q18 -109 70 -203q49 -90 143 -129q98 -41 240 -41q150 0 241 37 q94 37 144 125q49 84 67 203q18 114 19 295q0 346 -99 508q-98 164 -372 163q-143 0 -237.5 -43t-143.5 -135q-53 -100 -70 -205q-20 -128 -20 -288z" />
<glyph unicode="P" horiz-adv-x="1257" d="M211 0v1434h522q221 0 322 -105q102 -106 102 -328q0 -475 -424 -475h-448v-526h-74zM285 596h448q346 0 346 405q0 188 -80 275q-82 88 -266 88h-448v-768z" />
<glyph unicode="Q" horiz-adv-x="1341" d="M123 711q0 379 119 559q121 182 430 182q311 0 430 -180t119 -561q0 -287 -54 -441q-55 -160 -194 -231l176 -287l-74 -35l-178 293q-102 -29 -225 -28q-168 0 -273 45q-106 45 -168 143q-59 96 -84 223q-24 130 -24 318zM201 711q0 -174 18 -287q18 -109 70 -203 q49 -90 143 -129q98 -41 240 -41q150 0 241 37q94 37 144 125q49 84 67 203q18 114 19 295q0 346 -99 508q-98 164 -372 163q-143 0 -237.5 -43t-143.5 -135q-53 -100 -70 -205q-20 -128 -20 -288z" />
<glyph unicode="R" horiz-adv-x="1288" d="M211 0v1434h514q217 0 321.5 -98.5t104.5 -311.5q0 -365 -297 -420l324 -604h-84l-320 594h-489v-594h-74zM285 664h440q188 0 268 92t80 268q0 178 -84 258q-86 82 -264 82h-440v-700z" />
<glyph unicode="S" horiz-adv-x="1095" d="M109 1096q0 360 442 360q166 0 407 -33l-8 -71q-289 35 -399 34q-365 0 -365 -286q0 -66 9 -107q8 -45 34 -78q29 -35 52 -53q29 -23 77 -37q55 -16 95 -24q57 -12 118 -23q219 -33 320 -108q98 -74 98 -254q0 -231 -108 -330q-111 -100 -326 -100q-80 0 -178 8l-184 16 l-76 8l8 72q291 -35 428 -35q178 0 268 84t90 271q0 147 -77 206q-76 57 -281 89q-106 16 -191 38q-66 18 -133 60q-63 39 -91.5 113t-28.5 180z" />
<glyph unicode="T" horiz-adv-x="1024" d="M0 1364v70h1024v-70h-473v-1364h-74v1364h-477z" />
<glyph unicode="U" horiz-adv-x="1312" d="M184 401v1033h74v-1033q0 -186 100.5 -268t288.5 -82q203 0 307 80q102 78 103 270v1033h73v-1033q0 -223 -122.5 -321t-360.5 -98q-224 0 -344 98q-119 98 -119 321z" />
<glyph unicode="V" horiz-adv-x="1183" d="M72 1434h73l394 -1364h118l383 1364h74l-397 -1434h-238z" />
<glyph unicode="W" horiz-adv-x="1783" d="M92 1434h72l293 -1364h78l317 1343h82l328 -1343h77l283 1364h72l-295 -1434h-197l-309 1317l-299 -1317h-197z" />
<glyph unicode="X" horiz-adv-x="1187" d="M82 0l463 711l-463 723h88l426 -668l424 668h88l-457 -723l457 -711h-88l-422 659l-428 -659h-88z" />
<glyph unicode="Y" horiz-adv-x="1103" d="M51 1434h84l420 -736l414 736h86l-463 -818v-616h-74v616z" />
<glyph unicode="Z" horiz-adv-x="1165" d="M123 -2v141l846 1176v49h-846v70h921v-144l-845 -1177v-45h845v-70h-921z" />
<glyph unicode="[" horiz-adv-x="612" d="M100 -252v1786h373v-66h-301v-1654h301v-66h-373z" />
<glyph unicode="\" d="M197 1407l71 29l617 -1407l-72 -29z" />
<glyph unicode="]" horiz-adv-x="612" d="M100 -186h301v1654h-301v66h373v-1786h-373v66z" />
<glyph unicode="^" d="M143 682l351 670h75l371 -670h-86l-324 596l-305 -596h-82z" />
<glyph unicode="_" horiz-adv-x="1062" d="M55 -70h877v-69h-877v69z" />
<glyph unicode="`" horiz-adv-x="438" d="M20 1436l33 63l393 -196l-30 -56z" />
<glyph unicode="a" horiz-adv-x="1058" d="M113 281q0 133 67.5 206.5t214.5 87.5l389 41v107q0 129 -57 190q-55 59 -170 60q-55 0 -164 -10q-131 -12 -160 -17l-63 -8l-6 68q230 37 393 36q299 0 299 -319v-588q10 -74 154 -86l-4 -65q-154 0 -211 82q-193 -84 -422 -84q-123 0 -191 77q-69 81 -69 222zM188 281 q0 -111 49.5 -172.5t137.5 -61.5q96 0 192 21q115 25 160 41l57 20v420l-381 -37q-215 -20 -215 -231z" />
<glyph unicode="b" horiz-adv-x="1099" d="M207 0v1495h72v-534q174 82 352 81q203 0 276 -116q72 -113 72 -391q0 -299 -96.5 -426t-370.5 -127q-139 0 -305 18zM279 59q160 -12 231 -12q129 0 207 26.5t119 94.5q43 72 55 147q12 83 12 215q0 246 -53 344q-55 102 -219 103q-86 0 -170 -21q-98 -25 -135 -41 l-47 -20v-836z" />
<glyph unicode="c" horiz-adv-x="892" d="M123 535q0 287 94 395q96 113 326 112l245 -20l-4 -66q-156 20 -241 21q-195 0 -269 -98q-76 -100 -75 -344q0 -272 67 -381q68 -106 277 -107l245 19l5 -66q-172 -18 -250 -18q-246 0 -334 118q-86 118 -86 435z" />
<glyph unicode="d" horiz-adv-x="1099" d="M123 498q0 281 94 411q96 133 336 133q117 0 270 -24v416h72v-1434h-72v86q-6 -4 -51 -29q-41 -23 -127 -47q-98 -29 -176 -28q-49 0 -86 6q-41 6 -90 32q-52 28 -86 80q-33 49 -57 154q-27 111 -27 244zM195 492q0 -137 26 -240q25 -98 70 -137q47 -41 86 -54 q47 -14 92 -14q174 4 354 107v798q-212 25 -270 25q-205 0 -283 -119q-75 -114 -75 -366z" />
<glyph unicode="e" horiz-adv-x="1036" d="M123 512q0 530 414 530q195 0 292 -116q96 -115 97 -375v-68h-727q0 -223 69.5 -329.5t241.5 -106.5q141 0 373 19l4 -66q-231 -18 -379 -18q-217 2 -301 133t-84 397zM199 549h651q0 229 -76 330q-74 98 -237 98q-338 0 -338 -428z" />
<glyph unicode="f" horiz-adv-x="669" d="M72 958v66h141v125q0 217 57 289q59 76 203 75l189 -6v-63q-176 4 -189 4q-109 0 -149 -62q-39 -59 -39 -239v-123h331v-66h-331v-958h-72v958h-141z" />
<glyph unicode="g" horiz-adv-x="1030" d="M113 -164q0 66 24 113q27 49 53 74q33 31 97 75q-45 27 -45 133q0 16 14 54q14 35 33 73l14 33q-176 59 -176 311q0 342 350 342q47 0 103 -6q33 -4 86 -14l28 -6l287 6v-72h-221q82 -76 82 -250q0 -186 -86 -260q-88 -76 -287 -75q-68 0 -111 8q-47 -119 -47 -144 q0 -31 4 -51q2 -14 17 -30q10 -14 47 -21q6 -2 80 -6q31 -2 133 -2q201 0 282 -58q80 -55 80 -237q0 -166 -104 -240q-106 -76 -332 -75q-244 0 -325 69q-80 68 -80 256zM186 -162q0 -152 64 -207q65 -55 270 -55q186 0 275 59q84 57 84 191q0 150 -62 188q-63 41 -229 41 l-248 6q-94 -66 -123 -106q-31 -43 -31 -117zM201 702q0 -143 57 -206.5t211 -63.5q160 0 229 60q68 57 68 210q0 166 -61.5 221.5t-229.5 55.5q-139 0 -206.5 -61.5t-67.5 -215.5z" />
<glyph unicode="h" horiz-adv-x="1159" d="M207 0v1536h72v-573q181 80 356 79q206 0 270 -104q66 -106 66 -406v-532h-72v528q0 270 -49 359q-49 90 -215 90q-86 0 -170 -21q-96 -23 -137 -41l-49 -20v-895h-72z" />
<glyph unicode="i" horiz-adv-x="438" d="M184 0v1024h72v-1024h-72zM184 1321v113h72v-113h-72z" />
<glyph unicode="j" horiz-adv-x="475" d="M-61 -383q178 96 229 170q53 76 53 225v1012h72v-1014q0 -176 -64 -266q-61 -86 -262 -190zM221 1321v113h72v-113h-72z" />
<glyph unicode="k" horiz-adv-x="987" d="M207 0v1495h72v-897h192l373 426h84l-393 -463l393 -561h-84l-373 526h-192v-526h-72z" />
<glyph unicode="l" horiz-adv-x="458" d="M195 0v1495h71v-1495h-71z" />
<glyph unicode="m" horiz-adv-x="1792" d="M207 0v1024h72v-82q4 2 17 9l32 18q27 16 121 45q92 29 165 28q53 0 119 -10q98 -18 148 -88q229 98 385 98q206 0 270 -104q66 -106 66 -406v-532h-72v528q0 270 -49 359q-49 90 -215 90q-78 0 -168 -25q-78 -20 -129 -47q-51 -25 -56 -28q37 -102 37 -345v-532h-71v528 q0 270 -50 359q-49 90 -215 90q-176 0 -331 -100l-4 -3v-874h-72z" />
<glyph unicode="n" horiz-adv-x="1171" d="M207 0v1024h72v-82q180 100 358 100q206 0 270 -104q66 -106 66 -406v-532h-72v528q0 270 -49 359q-49 90 -215 90q-180 -4 -358 -103v-874h-72z" />
<glyph unicode="o" horiz-adv-x="1075" d="M123 535q0 283 96 395t324 112q211 0 311 -118.5t100 -393.5q0 -299 -84 -423.5t-327 -124.5q-248 0 -334 118q-86 122 -86 435zM199 535q0 -141 12 -226q14 -90 47 -149q37 -63 104.5 -88t180.5 -25q115 0 180 27q68 29 102.5 96.5t42.5 144.5q10 88 11 215 q0 243 -80 344q-80 102 -256 103q-197 0 -270.5 -92t-73.5 -350z" />
<glyph unicode="p" horiz-adv-x="1103" d="M207 -471v1495h72v-86q6 4 51 29q41 23 127 47q98 29 176 28q184 0 266 -124q84 -127 84 -392q0 -287 -100 -417q-96 -127 -334 -127q-133 0 -270 28v-481h-72zM279 76q162 -29 270 -29q201 0 278 109q80 111 80 376q0 233 -69 342q-66 102 -205 103q-168 0 -350 -107 l-4 -2v-792z" />
<glyph unicode="q" horiz-adv-x="1099" d="M123 489q0 293 102 424q102 129 365 129l305 -18v-1495h-72v530q-152 -78 -331 -77q-201 0 -285 124.5t-84 382.5zM199 494q0 -223 65 -336q65 -111 228 -111q86 0 165 21q86 23 123 41l43 20v836q-160 12 -231 12q-231 0 -311 -113q-82 -116 -82 -370z" />
<glyph unicode="r" horiz-adv-x="722" d="M207 0v1024h72v-160l57 39t141 74q109 49 207 67v-69q-197 -40 -405 -178v-797h-72z" />
<glyph unicode="s" horiz-adv-x="987" d="M123 768q0 101 55 165.5t129 86.5q78 23 166 22q39 0 158 -8q98 -6 141 -14l53 -8l-4 -68q-203 33 -348 33q-274 0 -274 -205q0 -96 57 -135q58 -40 233 -68q218 -34 295 -86q78 -53 78 -188q0 -172 -98 -242q-100 -72 -291 -71q-59 0 -135 8q-123 12 -143 16l-60 8l8 68 q227 -35 326 -35q160 0 238 51q80 52 79 191q0 104 -61 145q-61 39 -256 68q-188 31 -270 82q-76 49 -76 184z" />
<glyph unicode="t" horiz-adv-x="759" d="M72 958v66h161v334h72v-334h373v-66h-373v-536q0 -233 35 -307q33 -70 154 -70l200 16l6 -65q-143 -16 -206 -16q-143 0 -203 75q-57 72 -58 289v614h-161z" />
<glyph unicode="u" horiz-adv-x="1138" d="M190 492v532h72v-528q0 -270 49 -359q49 -90 215 -90q174 0 332 100l4 3v874h72v-1024h-72v82l-17.5 -9t-31.5 -18q-27 -16 -121 -45q-92 -29 -166 -28q-206 0 -270 104q-66 107 -66 406z" />
<glyph unicode="v" horiz-adv-x="980" d="M72 1024h75l299 -958h89l301 958h75l-321 -1024h-201z" />
<glyph unicode="w" horiz-adv-x="1556" d="M78 1024h76l260 -958h22l303 938h80l301 -938h23l262 958h76l-281 -1024h-139l-283 918l-284 -918h-140z" />
<glyph unicode="x" horiz-adv-x="931" d="M78 0l346 512l-346 512h82l307 -457l307 457h82l-346 -512l346 -512h-84l-305 457l-305 -457h-84z" />
<glyph unicode="y" horiz-adv-x="980" d="M72 1024h75l302 -958h83l304 958h75l-469 -1495h-75l147 471h-125z" />
<glyph unicode="z" horiz-adv-x="983" d="M113 0v66l671 892h-671v66h759v-66l-671 -892h671v-66h-759z" />
<glyph unicode="{" horiz-adv-x="581" d="M0 602v66q117 28 166 86q47 55 47 159q0 27 -6 125q-8 131 -8 138q0 182 84 270q80 82 276 92l4 -65q-172 -10 -231 -78q-61 -72 -62 -219q0 -37 6 -125l9 -119q0 -135 -45 -195q-47 -63 -160 -100q115 -37 160 -100.5t45 -190.5q-2 -10 -9 -104q-6 -86 -6 -133 q0 -147 64 -218q66 -72 229 -79l-4 -66q-199 10 -278 92q-82 84 -82 271q0 14 8 137q6 92 6 114q0 100 -47 153.5t-166 88.5z" />
<glyph unicode="|" d="M496 -121v1555h71v-1555h-71z" />
<glyph unicode="}" horiz-adv-x="581" d="M0 -188q164 8 229 79q63 70 64 218q0 47 -6 133q-6 94 -8 104q0 127 45 190.5t159 100.5q-117 37 -159 100q-45 63 -45 195l8 119q6 88 6 125q0 147 -61.5 216.5t-231.5 80.5l4 65q199 -10 279 -92q82 -84 82 -270q0 -39 -7 -138l-4 -56.5l-3 -44.5t-1 -24 q0 -104 47 -159q49 -58 166 -86v-66q-119 -35 -166 -88t-47 -154q0 -6 1 -21l3 -43t4 -52q6 -92 7 -135q0 -184 -82 -268.5t-279 -94.5z" />
<glyph unicode="~" d="M139 649q114 111 209 111q68 0 209 -55.5t182 -55.5q29 0 80 29q45 25 80 53l33 27l14 -76q-109 -106 -205 -107q-70 0 -207 55.5t-186 55.5q-35 0 -82 -27q-55 -31 -82 -55l-30 -26z" />
<glyph unicode="&#xa1;" d="M512 858v164h82v-164h-82zM518 -410v996h72v-996h-72z" />
<glyph unicode="&#xa2;" horiz-adv-x="892" d="M121 506q0 221 90 328q90 104 266 110v266h72v-268q238 -20 237 -20l-4 -72q-197 20 -282 20q-162 0 -230 -82q-68 -83 -67 -282q0 -199 65 -275q65 -74 252 -73l266 16l5 -72q-151 -15 -240 -18v-258h-72v258q-199 6 -278.5 92t-79.5 330z" />
<glyph unicode="&#xa3;" d="M193 0v70h188v696h-141v65h141v130q0 260 61.5 346t219.5 86q77 0 245 -25v-65q-178 25 -245 24q-129 0 -168 -74q-41 -76 -41 -301v-121h372v-65h-372v-696h356l168 32l14 -65l-168 -37h-630z" />
<glyph unicode="&#xa4;" horiz-adv-x="1081" d="M127 154l145 143q-78 96 -77.5 219t77.5 219l-145 144l53 53l144 -146q96 78 219 78t219 -78l143 146l53 -53l-145 -144q78 -96 78 -219t-78 -219l145 -143l-53 -54l-143 146q-96 -78 -219 -78t-219 78l-144 -146zM270 516q0 -113 78 -194q82 -78 194.5 -78t194.5 78 q78 82 78 194.5t-78 194.5q-82 78 -194.5 77.5t-194.5 -77.5q-78 -82 -78 -195z" />
<glyph unicode="&#xa5;" horiz-adv-x="1103" d="M51 1352h84l420 -633l414 633h86l-391 -604h344v-70h-390l-26 -41v-195h418v-69h-418v-373h-74v373h-420v69h420v195l-26 41h-396v70h350z" />
<glyph unicode="&#xa6;" d="M489 -123v729h70v-729h-70zM489 807v729h70v-729h-70z" />
<glyph unicode="&#xa7;" d="M164 580q0 59 29 122q28 61 55 93l26 30q-90 68 -90 234q0 145 95 219t264 74q135 0 319 -27l-4 -65q-211 27 -315 26q-287 0 -287 -225q0 -133 66 -178q68 -45 237 -74q175 -28 258 -86q82 -57 82 -201q0 -131 -80 -260q74 -58 74 -190q0 -160 -90 -242t-264 -82 q-55 0 -142 6q-23 2 -143 15l-59 6l6 65q233 -29 338 -28q283 0 282 258q0 119 -65 155q-68 39 -232 60q-186 27 -274 90q-86 62 -86 205zM236 584q0 -111 71 -160q76 -53 232 -74q163 -25 227 -55q61 108 61 221q0 117 -65 160q-70 47 -217 67q-166 29 -219 54 q-90 -109 -90 -213z" />
<glyph unicode="&#xa8;" horiz-adv-x="438" d="M0 1307v127h72v-127h-72zM389 1307v127h72v-127h-72z" />
<glyph unicode="&#xa9;" d="M20 888.5q0 229.5 149.5 387.5t373.5 158q225 0 374.5 -158t149.5 -387.5t-149 -384.5q-152 -158 -375 -158q-221 0 -373 158q-150 155 -150 384.5zM86 889q0 -200 129 -338q129 -139 328 -139q195 0 327 139q131 137 131 338q0 203 -131 340q-133 139 -327 139 q-199 0 -328 -139t-129 -340zM319 887q0 154 48 235q47 80 176 80q82 0 151 -14l-2 -66q-78 14 -149 15q-102 0 -129 -58q-29 -61 -29 -192q0 -129 33 -187q35 -59 125 -59l149 16l2 -65q-94 -16 -151 -17q-129 0 -176 78q-48 76 -48 234z" />
<glyph unicode="&#xaa;" horiz-adv-x="1058" d="M283 954q0 143 153 156l209 14v47q0 63 -24.5 88t-81.5 25l-213 -14l-4 63q152 16 217 17q89 0 129 -43q41 -45 41 -138v-274q12 -41 75 -47l-4 -57q-70 4 -110 45q-127 -45 -244 -45q-63 0 -102 45q-41 46 -41 118zM350 950q0 -94 82 -94q47 0 94 8q59 10 86 19l33 8 v174l-199 -12q-51 -2 -73.5 -29t-22.5 -74z" />
<glyph unicode="&#xab;" d="M184 479v74l342 264v-80l-276 -217l276 -239v-84zM608 479v74l342 264v-80l-276 -217l276 -239v-84z" />
<glyph unicode="&#xac;" d="M141 610v70h811v-422h-73v352h-738z" />
<glyph unicode="&#xad;" horiz-adv-x="899" d="M123 541v69h655v-69h-655z" />
<glyph unicode="&#xae;" d="M20 888.5q0 229.5 149.5 387.5t373.5 158q225 0 374.5 -158t149.5 -387.5t-149 -384.5q-152 -158 -375 -158q-221 0 -373 158q-150 155 -150 384.5zM86 889q0 -200 129 -338q129 -139 328 -139q195 0 327 139q131 137 131 338q0 203 -131 340q-133 139 -327 139 q-199 0 -328 -139t-129 -340zM334 565v645h186q131 0 185 -41q51 -39 51 -143q0 -156 -121 -186l133 -275h-72l-135 269h-162v-269h-65zM399 899h164q72 0 99 27q29 29 28 100q0 70 -39 94q-41 25 -125 25h-127v-246z" />
<glyph unicode="&#xaf;" horiz-adv-x="438" d="M-41 1315v65h547v-65h-547z" />
<glyph unicode="&#xb0;" d="M221 1155q0 125 78 203q76 76 201 76q127 0 202.5 -76t75.5 -203q0 -125 -75.5 -200.5t-202.5 -75.5q-125 0 -201 75q-78 78 -78 201zM291 1155q0 -96 57.5 -153.5t151.5 -57.5q96 0 155 60q57 57 57.5 151t-59 153.5t-153.5 59.5q-92 0 -152 -59q-57 -58 -57 -154z" />
<glyph unicode="&#xb1;" d="M113 676v69h395v283h74v-283h407v-69h-407v-295h-74v295h-395zM115 164v69h876v-69h-876z" />
<glyph unicode="&#xb2;" horiz-adv-x="540" d="M57 979v70l201 213q51 55 57 63q18 25 37 61q16 33 17 78q0 102 -117 103q-72 0 -184 -25l-5 68q100 27 191 26q188 0 188 -174q0 -61 -32.5 -120.5t-100.5 -127.5l-155 -165h303v-70h-400z" />
<glyph unicode="&#xb3;" horiz-adv-x="540" d="M59 983l7 66q111 -18 213 -19q129 0 129 119q0 125 -123 125h-133v69h133q39 0 71.5 39t32.5 91q0 47 -27 71q-25 23 -92 23q-41 0 -90 -6q-18 -2 -46 -5.5t-32 -3.5l-28 -4l-6 66q113 23 200 22q100 0 148 -39q49 -41 49 -124q0 -52 -25 -93t-41 -51q-12 -8 -32 -16 q59 -18 88 -49q29 -33 28 -113q0 -190 -204 -190q-95 -1 -220 22z" />
<glyph unicode="&#xb4;" horiz-adv-x="546" d="M82 1303l393 196l33 -63l-395 -189z" />
<glyph unicode="&#xb5;" d="M184 -512v1536h72v-528q0 -270 49 -359q49 -90 215 -90q174 0 332 100l4 3v874h72v-1024h-72v82l-17.5 -9t-31.5 -18q-27 -16 -121 -45q-92 -29 -166 -28q-194 0 -264 104v-598h-72z" />
<glyph unicode="&#x3bc;" d="M184 -512v1536h72v-528q0 -270 49 -359q49 -90 215 -90q174 0 332 100l4 3v874h72v-1024h-72v82l-17.5 -9t-31.5 -18q-27 -16 -121 -45q-92 -29 -166 -28q-194 0 -264 104v-598h-72z" />
<glyph unicode="&#xb6;" d="M16 1073q0 160 111 260q109 100 270 101h672v-68h-199v-1366h-73v1366h-312v-1366h-73v717h-15q-162 0 -272 98q-109 96 -109 258z" />
<glyph unicode="&#xb7;" horiz-adv-x="505" d="M201 553v164h82v-164h-82z" />
<glyph unicode="&#xb8;" horiz-adv-x="1703" d="M811 -403l4 57q80 -8 160 -8q98 0 98 94q0 86 -98 86h-111v176h68v-119q115 0 164 -30.5t49 -112.5q0 -152 -168 -152z" />
<glyph unicode="&#xb9;" horiz-adv-x="540" d="M80 1481l203 137h73v-639h-73v559l-168 -115z" />
<glyph unicode="&#xba;" horiz-adv-x="1075" d="M295 1073q0 276 235 277q121 0 175 -66q57 -70 57 -211q0 -283 -232 -282q-235 -1 -235 282zM365 1073q0 -121 38 -168q39 -49 127 -49t125 49t37 168t-37 164q-37 47 -125 47t-126.5 -47t-38.5 -164z" />
<glyph unicode="&#xbb;" d="M135 197v84l277 239l-277 217v80l342 -264v-74zM559 197v84l277 239l-277 217v80l342 -264v-74z" />
<glyph unicode="&#xbf;" horiz-adv-x="788" d="M20 -104q0 98 41 174q47 86 103 139l121 110q53 47 100 115q43 61 43 123v78h72v-84q0 -74 -41 -137q-43 -68 -103 -121l-120 -113q-61 -61 -102.5 -130.5t-41.5 -153.5q0 -141 82 -198.5t256 -57.5q100 0 330 57l10 -70q-229 -55 -340 -55q-201 0 -307 76 q-103 72 -103 248zM422 858v164h82v-164h-82z" />
<glyph unicode="&#xc0;" horiz-adv-x="1234" d="M72 0l440 1434h217l436 -1430h-73l-138 436h-671l-138 -440h-73zM303 510h631l-260 854h-111zM377 1825l33 63l393 -196l-31 -56z" />
<glyph unicode="&#xc1;" horiz-adv-x="1234" d="M72 0l440 1434h217l436 -1430h-73l-138 436h-671l-138 -440h-73zM303 510h631l-260 854h-111zM426 1712l393 197l33 -64l-395 -188z" />
<glyph unicode="&#xc2;" horiz-adv-x="1234" d="M72 0l440 1434h217l436 -1430h-73l-138 436h-671l-138 -440h-73zM303 510h631l-260 854h-111zM340 1638l248 271h57l250 -271h-88l-189 205l-190 -205h-88z" />
<glyph unicode="&#xc3;" horiz-adv-x="1234" d="M72 0l440 1434h217l436 -1430h-73l-138 436h-671l-138 -440h-73zM303 510h631l-260 854h-111zM311 1778q102 96 168 96q45 0 158 -55q109 -53 143 -54q37 0 127 84l19 -61q-86 -88 -150 -88q-43 0 -157.5 55t-143.5 55q-41 0 -143 -92z" />
<glyph unicode="&#xc4;" horiz-adv-x="1234" d="M72 0l440 1434h217l436 -1430h-73l-138 436h-671l-138 -440h-73zM303 510h631l-260 854h-111zM408 1716v127h71v-127h-71zM797 1716v127h71v-127h-71z" />
<glyph unicode="&#xc5;" horiz-adv-x="1234" d="M72 0l428 1395q-82 49 -82 159q0 90 53 138q57 51 145.5 51t145.5 -51q53 -47 53 -138q0 -106 -76 -155l426 -1395h-73l-138 436h-671l-138 -440h-73zM303 510h631l-260 854h-111zM485 1554q0 -100 82 -120h97q84 23 84 120q0 59 -35 95q-33 33 -96.5 32.5t-96.5 -32.5 q-35 -36 -35 -95z" />
<glyph unicode="&#xc6;" horiz-adv-x="1837" d="M72 0l514 1434h1130v-70h-764v-590h641v-69h-641v-635h764v-70h-837v440h-566l-159 -440h-82zM338 510h541v854h-236z" />
<glyph unicode="&#xc7;" horiz-adv-x="1097" d="M119 711q0 162 10 250q12 104 43 202q31 96 88 158q53 57 148 94q92 37 221 37q98 0 182 -8q98 -10 145 -21l52 -10l-7 -72q-211 41 -372 41q-115 0 -193 -32q-82 -35 -127 -86q-47 -55 -71 -144q-23 -88 -33 -182q-8 -82 -8 -227.5t8 -227.5q10 -100 35 -180 q27 -86 73 -139q45 -51 125 -82t191 -31q57 0 159 10q45 4 152 21l61 10l7 -69q-207 -39 -357 -41v-99q115 0 164 -30.5t49 -112.5q0 -152 -168 -152l-166 9l5 57q80 -8 159 -8q98 0 99 94q0 86 -99 86h-110v158q-119 6 -197 40.5t-133 96.5q-49 55 -82 151q-31 92 -43 197 q-10 88 -10 242z" />
<glyph unicode="&#xc8;" horiz-adv-x="1169" d="M211 0v1434h838v-70h-764v-592h641v-70h-641v-632h764v-70h-838zM410 1825l32 63l394 -196l-31 -56z" />
<glyph unicode="&#xc9;" horiz-adv-x="1169" d="M211 0v1434h838v-70h-764v-592h641v-70h-641v-632h764v-70h-838zM457 1712l393 197l33 -64l-396 -188z" />
<glyph unicode="&#xca;" horiz-adv-x="1169" d="M211 0v1434h838v-70h-764v-592h641v-70h-641v-632h764v-70h-838zM352 1638l248 271h57l250 -271h-88l-188 205l-191 -205h-88z" />
<glyph unicode="&#xcb;" horiz-adv-x="1169" d="M211 0v1434h838v-70h-764v-592h641v-70h-641v-632h764v-70h-838zM399 1716v127h72v-127h-72zM788 1716v127h72v-127h-72z" />
<glyph unicode="&#xcc;" horiz-adv-x="460" d="M-41 1825l33 63l393 -196l-31 -56zM195 0v1434h73v-1434h-73z" />
<glyph unicode="&#xcd;" horiz-adv-x="460" d="M41 1692l393 196l33 -63l-395 -189zM195 0v1434h73v-1434h-73z" />
<glyph unicode="&#xce;" horiz-adv-x="460" d="M-72 1657l275 256h61l275 -256h-93l-213 196l-210 -196h-95zM195 0v1434h73v-1434h-73z" />
<glyph unicode="&#xcf;" horiz-adv-x="460" d="M-2 1716v127h72v-127h-72zM195 0v1434h73v-1434h-73zM399 1716v127h72v-127h-72z" />
<glyph unicode="&#xd0;" horiz-adv-x="1335" d="M53 664v69h158v701h532q131 0 226 -58q98 -59 151 -157q53 -96 78 -220q25 -119 25 -262q0 -131 -27 -268q-25 -123 -78 -233q-51 -104 -149 -173q-94 -63 -226 -63h-532v664h-158zM285 70h458q111 0 193 59q82 61 125 160q41 96 63 213q20 104 21 235q0 127 -21 228 q-23 113 -63 198q-45 94 -125 148q-82 53 -193 53h-458v-631h342v-69h-342v-594z" />
<glyph unicode="&#xd1;" horiz-adv-x="1404" d="M211 0v1434h174l682 -1364h55v1364h74v-1434h-174l-684 1364h-53v-1364h-74zM395 1778q102 96 168 96q43 0 158 -55q109 -53 143 -54q37 0 127 84l19 -61q-86 -88 -150 -88q-41 0 -155.5 55t-145.5 55q-43 0 -143 -92z" />
<glyph unicode="&#xd2;" horiz-adv-x="1341" d="M123 711q0 379 119 559q121 182 430 182q311 0 430 -180t119 -561q0 -393 -115 -559q-117 -170 -434 -170q-168 0 -273 45q-106 45 -168 143q-59 96 -84 223q-24 130 -24 318zM201 711q0 -174 18 -287q18 -109 70 -203q49 -90 143 -129q98 -41 240 -41q150 0 241 37 q94 37 144 125q49 84 67 203q18 114 19 295q0 346 -99 508q-98 164 -372 163q-143 0 -237.5 -43t-143.5 -135q-53 -100 -70 -205q-20 -128 -20 -288zM453 1825l32 63l394 -196l-31 -56z" />
<glyph unicode="&#xd3;" horiz-adv-x="1341" d="M123 711q0 379 119 559q121 182 430 182q311 0 430 -180t119 -561q0 -393 -115 -559q-117 -170 -434 -170q-168 0 -273 45q-106 45 -168 143q-59 96 -84 223q-24 130 -24 318zM201 711q0 -174 18 -287q18 -109 70 -203q49 -90 143 -129q98 -41 240 -41q150 0 241 37 q94 37 144 125q49 84 67 203q18 114 19 295q0 346 -99 508q-98 164 -372 163q-143 0 -237.5 -43t-143.5 -135q-53 -100 -70 -205q-20 -128 -20 -288zM459 1712l393 197l33 -64l-396 -188z" />
<glyph unicode="&#xd4;" horiz-adv-x="1341" d="M123 711q0 379 119 559q121 182 430 182q311 0 430 -180t119 -561q0 -393 -115 -559q-117 -170 -434 -170q-168 0 -273 45q-106 45 -168 143q-59 96 -84 223q-24 130 -24 318zM201 711q0 -174 18 -287q18 -109 70 -203q49 -90 143 -129q98 -41 240 -41q150 0 241 37 q94 37 144 125q49 84 67 203q18 114 19 295q0 346 -99 508q-98 164 -372 163q-143 0 -237.5 -43t-143.5 -135q-53 -100 -70 -205q-20 -128 -20 -288zM395 1638l248 271h57l250 -271h-88l-188 205l-191 -205h-88z" />
<glyph unicode="&#xd5;" horiz-adv-x="1341" d="M123 711q0 379 119 559q121 182 430 182q311 0 430 -180t119 -561q0 -393 -115 -559q-117 -170 -434 -170q-168 0 -273 45q-106 45 -168 143q-59 96 -84 223q-24 130 -24 318zM201 711q0 -174 18 -287q18 -109 70 -203q49 -90 143 -129q98 -41 240 -41q150 0 241 37 q94 37 144 125q49 84 67 203q18 114 19 295q0 346 -99 508q-98 164 -372 163q-143 0 -237.5 -43t-143.5 -135q-53 -100 -70 -205q-20 -128 -20 -288zM367 1778q102 96 168 96q43 0 157 -55q109 -53 144 -54q37 0 127 84l18 -61q-86 -88 -150 -88q-45 0 -157.5 55t-143.5 55 q-43 0 -143 -92z" />
<glyph unicode="&#xd6;" horiz-adv-x="1341" d="M123 711q0 379 119 559q121 182 430 182q311 0 430 -180t119 -561q0 -393 -115 -559q-117 -170 -434 -170q-168 0 -273 45q-106 45 -168 143q-59 96 -84 223q-24 130 -24 318zM201 711q0 -174 18 -287q18 -109 70 -203q49 -90 143 -129q98 -41 240 -41q150 0 241 37 q94 37 144 125q49 84 67 203q18 114 19 295q0 346 -99 508q-98 164 -372 163q-143 0 -237.5 -43t-143.5 -135q-53 -100 -70 -205q-20 -128 -20 -288zM436 1716v127h72v-127h-72zM825 1716v127h72v-127h-72z" />
<glyph unicode="&#xd7;" horiz-adv-x="1703" d="M401 80l412 432l-407 426l55 49l401 -424l404 424l55 -49l-408 -426l412 -432l-53 -47l-410 426l-407 -426z" />
<glyph unicode="&#xd8;" horiz-adv-x="1341" d="M123 711q0 379 119 559q121 182 430 182q172 0 286 -57l107 227l68 -29l-113 -237q109 -84 156 -244q45 -154 45 -401q0 -393 -115 -559q-117 -170 -434 -170q-158 0 -275 47l-118 -256l-68 26l123 264q-117 78 -164 236q-47 160 -47 412zM201 711q0 -238 35 -369 q37 -141 131 -211l559 1196q-98 55 -254 55q-143 0 -237.5 -43t-143.5 -135q-53 -100 -70 -205q-20 -128 -20 -288zM428 94q96 -43 244 -43q150 0 241 37q94 37 144 125q49 84 67 203q18 114 19 295q0 430 -156 573z" />
<glyph unicode="&#xd9;" horiz-adv-x="1312" d="M184 401v1033h74v-1033q0 -186 100.5 -268t288.5 -82q203 0 307 80q102 78 103 270v1033h73v-1033q0 -223 -122.5 -321t-360.5 -98q-224 0 -344 98q-119 98 -119 321zM434 1825l33 63l393 -196l-31 -56z" />
<glyph unicode="&#xda;" horiz-adv-x="1312" d="M184 401v1033h74v-1033q0 -186 100.5 -268t288.5 -82q203 0 307 80q102 78 103 270v1033h73v-1033q0 -223 -122.5 -321t-360.5 -98q-224 0 -344 98q-119 98 -119 321zM444 1712l394 197l32 -64l-395 -188z" />
<glyph unicode="&#xdb;" horiz-adv-x="1312" d="M184 401v1033h74v-1033q0 -186 100.5 -268t288.5 -82q203 0 307 80q102 78 103 270v1033h73v-1033q0 -223 -122.5 -321t-360.5 -98q-224 0 -344 98q-119 98 -119 321zM381 1638l248 271h57l250 -271h-88l-189 205l-190 -205h-88z" />
<glyph unicode="&#xdc;" horiz-adv-x="1312" d="M184 401v1033h74v-1033q0 -186 100.5 -268t288.5 -82q203 0 307 80q102 78 103 270v1033h73v-1033q0 -223 -122.5 -321t-360.5 -98q-224 0 -344 98q-119 98 -119 321zM451 1716v127h71v-127h-71zM840 1716v127h71v-127h-71z" />
<glyph unicode="&#xdd;" horiz-adv-x="1103" d="M51 1434h84l420 -736l414 736h86l-463 -818v-616h-74v616zM340 1712l393 197l33 -64l-395 -188z" />
<glyph unicode="&#xde;" horiz-adv-x="1257" d="M211 0v1434h74v-250h448q221 0 322 -105q102 -106 102 -327q0 -475 -424 -476h-448v-276h-74zM285 346h448q346 0 346 406q0 188 -80 274q-82 88 -266 88h-448v-768z" />
<glyph unicode="&#xdf;" horiz-adv-x="1204" d="M207 0v1149q0 205 82 285q84 80 272 79q193 0 270.5 -65.5t77.5 -210.5q0 -92 -35 -168q-33 -72 -96 -96q-92 -35 -116.5 -53.5t-24.5 -49.5q0 -23 29 -47q18 -16 143 -94l61 -35q18 -10 30.5 -19t21.5 -13q18 -10 43 -27q14 -8 24 -14.5t15 -10.5l28 -22q20 -16 25 -23 q8 -12 14 -20t10 -25q2 -8 2 -26q0 -144 -18 -234t-69.5 -155.5t-149.5 -94t-250 -28.5l-160 8l8 69q104 -8 152 -8q145 0 221 23q88 27 125 84q41 63 53 133q10 59 11 203q0 25 -54 63q-45 33 -194 119q-132 77 -166 110q-33 33 -33 84q0 53 39 86q33 27 139 76 q63 29 78 74q16 49 16 131q0 115 -59 162q-57 45 -210.5 45t-217 -63.5t-63.5 -258.5v-1122h-74z" />
<glyph unicode="&#xe0;" horiz-adv-x="1058" d="M113 281q0 133 67.5 206.5t214.5 87.5l389 41v107q0 129 -57 190q-55 59 -170 60q-55 0 -164 -10q-131 -12 -160 -17l-63 -8l-6 68q230 37 393 36q299 0 299 -319v-588q10 -74 154 -86l-4 -65q-154 0 -211 82q-193 -84 -422 -84q-123 0 -191 77q-69 81 -69 222zM188 281 q0 -111 49.5 -172.5t137.5 -61.5q96 0 192 21q115 25 160 41l57 20v420l-381 -37q-215 -20 -215 -231zM287 1436l32 63l394 -196l-31 -56z" />
<glyph unicode="&#xe1;" horiz-adv-x="1058" d="M113 281q0 133 67.5 206.5t214.5 87.5l389 41v107q0 129 -57 190q-55 59 -170 60q-55 0 -164 -10q-131 -12 -160 -17l-63 -8l-6 68q230 37 393 36q299 0 299 -319v-588q10 -74 154 -86l-4 -65q-154 0 -211 82q-193 -84 -422 -84q-123 0 -191 77q-69 81 -69 222zM188 281 q0 -111 49.5 -172.5t137.5 -61.5q96 0 192 21q115 25 160 41l57 20v420l-381 -37q-215 -20 -215 -231zM285 1303l393 196l33 -63l-396 -189z" />
<glyph unicode="&#xe2;" horiz-adv-x="1058" d="M113 281q0 133 67.5 206.5t214.5 87.5l389 41v107q0 129 -57 190q-55 59 -170 60q-55 0 -164 -10q-131 -12 -160 -17l-63 -8l-6 68q230 37 393 36q299 0 299 -319v-588q10 -74 154 -86l-4 -65q-154 0 -211 82q-193 -84 -422 -84q-123 0 -191 77q-69 81 -69 222zM188 281 q0 -111 49.5 -172.5t137.5 -61.5q96 0 192 21q115 25 160 41l57 20v420l-381 -37q-215 -20 -215 -231zM225 1229l248 270h57l250 -270h-88l-188 205l-191 -205h-88z" />
<glyph unicode="&#xe3;" horiz-adv-x="1058" d="M113 281q0 133 67.5 206.5t214.5 87.5l389 41v107q0 129 -57 190q-55 59 -170 60q-55 0 -164 -10q-131 -12 -160 -17l-63 -8l-6 68q230 37 393 36q299 0 299 -319v-588q10 -74 154 -86l-4 -65q-154 0 -211 82q-193 -84 -422 -84q-123 0 -191 77q-69 81 -69 222zM188 281 q0 -111 49.5 -172.5t137.5 -61.5q96 0 192 21q115 25 160 41l57 20v420l-381 -37q-215 -20 -215 -231zM197 1368q102 96 168 96q45 0 157 -55q109 -53 144 -53q37 0 127 84l18 -62q-86 -88 -149 -88q-43 0 -156 55.5t-146 55.5q-41 0 -143 -92z" />
<glyph unicode="&#xe4;" horiz-adv-x="1058" d="M113 281q0 133 67.5 206.5t214.5 87.5l389 41v107q0 129 -57 190q-55 59 -170 60q-55 0 -164 -10q-131 -12 -160 -17l-63 -8l-6 68q230 37 393 36q299 0 299 -319v-588q10 -74 154 -86l-4 -65q-154 0 -211 82q-193 -84 -422 -84q-123 0 -191 77q-69 81 -69 222zM188 281 q0 -111 49.5 -172.5t137.5 -61.5q96 0 192 21q115 25 160 41l57 20v420l-381 -37q-215 -20 -215 -231zM289 1307v127h71v-127h-71zM678 1307v127h72v-127h-72z" />
<glyph unicode="&#xe5;" horiz-adv-x="1058" d="M113 281q0 133 67.5 206.5t214.5 87.5l389 41v107q0 129 -57 190q-55 59 -170 60q-55 0 -164 -10q-131 -12 -160 -17l-63 -8l-6 68q230 37 393 36q299 0 299 -319v-588q10 -74 154 -86l-4 -65q-154 0 -211 82q-193 -84 -422 -84q-123 0 -191 77q-69 81 -69 222zM188 281 q0 -111 49.5 -172.5t137.5 -61.5q96 0 192 21q115 25 160 41l57 20v420l-381 -37q-215 -20 -215 -231zM328 1331q0 84 57 139.5t139 55.5t137.5 -55.5t55.5 -139.5q0 -82 -55 -137q-57 -57 -138 -57q-82 0 -139 57t-57 137zM397 1331q0 -52 37 -92q37 -39 90 -39q51 0 88 39 q37 40 37 92q0 53 -37 90q-39 39 -88 39q-51 0 -90 -39q-37 -37 -37 -90z" />
<glyph unicode="&#xe6;" horiz-adv-x="1693" d="M113 281q0 166 80 221q82 57 299 84l292 30v107q0 129 -57 190q-55 59 -170 60q-152 0 -385 -19l-4 68q213 20 389 20q236 0 285 -196q100 197 352 196q195 0 293 -116q96 -115 96 -375v-68h-727q0 -223 69.5 -329.5t241.5 -106.5q143 0 373 19l4 -66q-229 -18 -379 -18 q-199 0 -293 118l-77 -32q-190 -86 -422 -86q-260 0 -260 299zM188 280.5q0 -112.5 50 -174.5q47 -59 137 -59q84 0 198 25q119 27 175 45q76 27 94 35q-61 119 -62 397l-377 -37q-111 -8 -163 -66q-52 -53 -52 -165.5zM856 549h651q0 229 -75 330q-74 98 -238 98 q-338 0 -338 -428z" />
<glyph unicode="&#xe7;" horiz-adv-x="892" d="M123 535q0 287 94 395q96 113 326 112l245 -20l-4 -66q-156 20 -241 21q-195 0 -269 -98q-76 -100 -75 -344q0 -272 67 -381q68 -106 277 -107l245 19l5 -66q-172 -18 -250 -18h-25v-99q115 0 164 -30.5t49 -112.5q0 -152 -168 -152l-166 9l4 57q80 -8 160 -8q98 0 98 94 q0 86 -98 86h-110v160q-193 18 -260.5 139t-67.5 410z" />
<glyph unicode="&#xe8;" horiz-adv-x="1036" d="M123 512q0 530 414 530q195 0 292 -116q96 -115 97 -375v-68h-727q0 -223 69.5 -329.5t241.5 -106.5q141 0 373 19l4 -66q-231 -18 -379 -18q-217 2 -301 133t-84 397zM199 549h651q0 229 -76 330q-74 98 -237 98q-338 0 -338 -428zM266 1438l33 63l393 -196l-30 -56z " />
<glyph unicode="&#xe9;" horiz-adv-x="1036" d="M123 512q0 530 414 530q195 0 292 -116q96 -115 97 -375v-68h-727q0 -223 69.5 -329.5t241.5 -106.5q141 0 373 19l4 -66q-231 -18 -379 -18q-217 2 -301 133t-84 397zM199 549h651q0 229 -76 330q-74 98 -237 98q-338 0 -338 -428zM354 1303l394 196l32 -63l-395 -189z " />
<glyph unicode="&#xea;" horiz-adv-x="1036" d="M123 512q0 530 414 530q195 0 292 -116q96 -115 97 -375v-68h-727q0 -223 69.5 -329.5t241.5 -106.5q141 0 373 19l4 -66q-231 -18 -379 -18q-217 2 -301 133t-84 397zM199 549h651q0 229 -76 330q-74 98 -237 98q-338 0 -338 -428zM266 1229l248 270h57l250 -270h-88 l-188 205l-191 -205h-88z" />
<glyph unicode="&#xeb;" horiz-adv-x="1036" d="M123 512q0 530 414 530q195 0 292 -116q96 -115 97 -375v-68h-727q0 -223 69.5 -329.5t241.5 -106.5q141 0 373 19l4 -66q-231 -18 -379 -18q-217 2 -301 133t-84 397zM199 549h651q0 229 -76 330q-74 98 -237 98q-338 0 -338 -428zM299 1307v127h72v-127h-72zM688 1307 v127h72v-127h-72z" />
<glyph unicode="&#xec;" horiz-adv-x="532" d="M55 1436l33 63l393 -196l-30 -56zM231 0v1024h72v-1024h-72z" />
<glyph unicode="&#xed;" horiz-adv-x="532" d="M117 1303l393 196l33 -63l-396 -189zM231 0v1024h72v-1024h-72z" />
<glyph unicode="&#xee;" horiz-adv-x="532" d="M-10 1229l248 270h57l250 -270h-88l-189 205l-190 -205h-88zM231 0v1024h72v-1024h-72z" />
<glyph unicode="&#xef;" horiz-adv-x="532" d="M31 1307v127h71v-127h-71zM231 0v1024h72v-1024h-72zM420 1307v127h72v-127h-72z" />
<glyph unicode="&#xf0;" d="M106 438q0 195 113 313.5t305 118.5q158 0 387 -90q-8 319 -342 523l-243 -164l-41 55l217 147q-115 59 -273 109l27 63q180 -53 311 -129l209 142l41 -56l-182 -124q352 -227 352 -619q0 -410 -102.5 -577.5t-337.5 -167.5q-207 0 -324 120q-117 119 -117 336zM180 438 q0 -184 96 -286q94 -100 271 -101q205 0 284 142q78 139 82 516q-238 92 -385 92q-164 0 -256 -101q-92 -102 -92 -262z" />
<glyph unicode="&#xf1;" horiz-adv-x="1171" d="M207 0v1024h72v-82q180 100 358 100q206 0 270 -104q66 -106 66 -406v-532h-72v528q0 270 -49 359q-49 90 -215 90q-180 -4 -358 -103v-874h-72zM305 1368q102 96 168 96q43 0 156 -55q109 -53 145.5 -53t126.5 84l19 -62q-86 -88 -150 -88q-41 0 -155.5 55.5 t-145.5 55.5q-43 0 -143 -92z" />
<glyph unicode="&#xf2;" horiz-adv-x="1075" d="M123 535q0 283 96 395t324 112q211 0 311 -118.5t100 -393.5q0 -299 -84 -423.5t-327 -124.5q-248 0 -334 118q-86 122 -86 435zM199 535q0 -141 12 -226q14 -90 47 -149q37 -63 104.5 -88t180.5 -25q115 0 180 27q68 29 102.5 96.5t42.5 144.5q10 88 11 215 q0 243 -80 344q-80 102 -256 103q-197 0 -270.5 -92t-73.5 -350zM315 1436l33 63l393 -196l-30 -56z" />
<glyph unicode="&#xf3;" horiz-adv-x="1075" d="M123 535q0 283 96 395t324 112q211 0 311 -118.5t100 -393.5q0 -299 -84 -423.5t-327 -124.5q-248 0 -334 118q-86 122 -86 435zM199 535q0 -141 12 -226q14 -90 47 -149q37 -63 104.5 -88t180.5 -25q115 0 180 27q68 29 102.5 96.5t42.5 144.5q10 88 11 215 q0 243 -80 344q-80 102 -256 103q-197 0 -270.5 -92t-73.5 -350zM367 1303l393 196l33 -63l-396 -189z" />
<glyph unicode="&#xf4;" horiz-adv-x="1075" d="M123 535q0 283 96 395t324 112q211 0 311 -118.5t100 -393.5q0 -299 -84 -423.5t-327 -124.5q-248 0 -334 118q-86 122 -86 435zM199 535q0 -141 12 -226q14 -90 47 -149q37 -63 104.5 -88t180.5 -25q115 0 180 27q68 29 102.5 96.5t42.5 144.5q10 88 11 215 q0 243 -80 344q-80 102 -256 103q-197 0 -270.5 -92t-73.5 -350zM262 1229l248 270h57l250 -270h-88l-188 205l-191 -205h-88z" />
<glyph unicode="&#xf5;" horiz-adv-x="1075" d="M123 535q0 283 96 395t324 112q211 0 311 -118.5t100 -393.5q0 -299 -84 -423.5t-327 -124.5q-248 0 -334 118q-86 122 -86 435zM199 535q0 -141 12 -226q14 -90 47 -149q37 -63 104.5 -88t180.5 -25q115 0 180 27q68 29 102.5 96.5t42.5 144.5q10 88 11 215 q0 243 -80 344q-80 102 -256 103q-197 0 -270.5 -92t-73.5 -350zM233 1368q102 96 168 96q41 0 156 -55q109 -53 145.5 -53t126.5 84l19 -62q-86 -88 -150 -88q-43 0 -157.5 55.5t-143.5 55.5q-41 0 -143 -92z" />
<glyph unicode="&#xf6;" horiz-adv-x="1075" d="M123 535q0 283 96 395t324 112q211 0 311 -118.5t100 -393.5q0 -299 -84 -423.5t-327 -124.5q-248 0 -334 118q-86 122 -86 435zM199 535q0 -141 12 -226q14 -90 47 -149q37 -63 104.5 -88t180.5 -25q115 0 180 27q68 29 102.5 96.5t42.5 144.5q10 88 11 215 q0 243 -80 344q-80 102 -256 103q-197 0 -270.5 -92t-73.5 -350zM299 1307v127h72v-127h-72zM688 1307v127h72v-127h-72z" />
<glyph unicode="&#xf7;" d="M68 684v74h688v-74h-688zM371 285v164h82v-164h-82zM371 989v164h82v-164h-82z" />
<glyph unicode="&#xf8;" horiz-adv-x="1075" d="M123 535q0 283 96 395t324 112q96 0 170 -24l92 221l61 -22l-94 -226q182 -102 182 -461q0 -299 -84 -423.5t-327 -124.5q-102 0 -176 18l-95 -233l-61 20l94 233q-104 49 -143 168q-39 118 -39 347zM199 535q0 -199 28.5 -303.5t108.5 -145.5l352 868q-68 23 -145 23 q-197 0 -270.5 -92t-73.5 -350zM391 63q59 -16 152 -16q115 0 180 27q68 29 102.5 96.5t42.5 144.5q10 88 11 215q0 297 -134 394z" />
<glyph unicode="&#xf9;" horiz-adv-x="1138" d="M190 492v532h72v-528q0 -270 49 -359q49 -90 215 -90q174 0 332 100l4 3v874h72v-1024h-72v82l-17.5 -9t-31.5 -18q-27 -16 -121 -45q-92 -29 -166 -28q-206 0 -270 104q-66 107 -66 406zM303 1436l33 63l393 -196l-31 -56z" />
<glyph unicode="&#xfa;" horiz-adv-x="1138" d="M190 492v532h72v-528q0 -270 49 -359q49 -90 215 -90q174 0 332 100l4 3v874h72v-1024h-72v82l-17.5 -9t-31.5 -18q-27 -16 -121 -45q-92 -29 -166 -28q-206 0 -270 104q-66 107 -66 406zM391 1303l393 196l33 -63l-395 -189z" />
<glyph unicode="&#xfb;" horiz-adv-x="1138" d="M190 492v532h72v-528q0 -270 49 -359q49 -90 215 -90q174 0 332 100l4 3v874h72v-1024h-72v82l-17.5 -9t-31.5 -18q-27 -16 -121 -45q-92 -29 -166 -28q-206 0 -270 104q-66 107 -66 406zM287 1229l248 270h57l250 -270h-88l-189 205l-190 -205h-88z" />
<glyph unicode="&#xfc;" horiz-adv-x="1138" d="M190 492v532h72v-528q0 -270 49 -359q49 -90 215 -90q174 0 332 100l4 3v874h72v-1024h-72v82l-17.5 -9t-31.5 -18q-27 -16 -121 -45q-92 -29 -166 -28q-206 0 -270 104q-66 107 -66 406zM354 1307v127h72v-127h-72zM743 1307v127h72v-127h-72z" />
<glyph unicode="&#xfd;" horiz-adv-x="980" d="M61 1024h76l301 -958h84l303 958h76l-469 -1495h-76l148 471h-125zM332 1303l393 196l33 -63l-396 -189z" />
<glyph unicode="&#xfe;" horiz-adv-x="1099" d="M289 -471v1966h71v-534q176 82 353 81q203 0 276 -116q72 -113 72 -391q0 -299 -96.5 -426t-370.5 -127q-111 0 -234 12v-465h-71zM360 59q160 -12 232 -12q129 0 207 26.5t118.5 94.5t53.5 147q14 96 14 215q0 246 -53 344q-55 102 -219 103q-86 0 -170 -21 q-98 -25 -135 -41l-48 -20v-836z" />
<glyph unicode="&#xff;" horiz-adv-x="980" d="M72 1024h75l302 -958h83l304 958h75l-469 -1495h-75l147 471h-125zM250 1307v127h72v-127h-72zM639 1307v127h72v-127h-72z" />
<glyph unicode="&#x100;" horiz-adv-x="1234" d="M72 0l440 1434h217l436 -1430h-73l-138 436h-671l-138 -440h-73zM303 510h631l-260 854h-111zM303 1704v65h588v-65h-588z" />
<glyph unicode="&#x101;" horiz-adv-x="1058" d="M113 281q0 133 67.5 206.5t214.5 87.5l389 41v107q0 129 -57 190q-55 59 -170 60q-55 0 -164 -10q-131 -12 -160 -17l-63 -8l-6 68q230 37 393 36q299 0 299 -319v-588q10 -74 154 -86l-4 -65q-154 0 -211 82q-193 -84 -422 -84q-123 0 -191 77q-69 81 -69 222zM188 281 q0 -111 49.5 -172.5t137.5 -61.5q96 0 192 21q115 25 160 41l57 20v420l-381 -37q-215 -20 -215 -231zM250 1315v65h547v-65h-547z" />
<glyph unicode="&#x102;" horiz-adv-x="1234" d="M72 0l440 1434h217l436 -1430h-73l-138 436h-671l-138 -440h-73zM303 510h631l-260 854h-111zM336 1890h72q0 -82 61 -131q59 -47 149.5 -47t149.5 47q61 49 61 131h72q0 -115 -82 -178q-84 -66 -200.5 -65.5t-200.5 65.5q-82 63 -82 178z" />
<glyph unicode="&#x103;" horiz-adv-x="1058" d="M113 281q0 133 67.5 206.5t214.5 87.5l389 41v107q0 129 -57 190q-55 59 -170 60q-55 0 -164 -10q-131 -12 -160 -17l-63 -8l-6 68q230 37 393 36q299 0 299 -319v-588q10 -74 154 -86l-4 -65q-154 0 -211 82q-193 -84 -422 -84q-123 0 -191 77q-69 81 -69 222zM188 281 q0 -111 49.5 -172.5t137.5 -61.5q96 0 192 21q115 25 160 41l57 20v420l-381 -37q-215 -20 -215 -231zM248 1481h71q0 -86 55.5 -141.5t155.5 -55.5q98 0 154 55q57 57 57 142h72q0 -115 -78 -189q-76 -74 -205 -73.5t-204 73.5q-78 74 -78 189z" />
<glyph unicode="&#x104;" horiz-adv-x="1234" d="M72 0l440 1434h217l436 -1430h-24l14 -2q-166 -175 -166 -240q0 -45 26.5 -73.5t69.5 -28.5l115 14l8 -67q-78 -16 -131 -17q-74 0 -119 45.5t-45 122.5q0 40 43 105q45 68 84 106l43 43l7 -2l-136 430h-671l-138 -440h-73zM303 510h631l-260 854h-111z" />
<glyph unicode="&#x105;" horiz-adv-x="1058" d="M113 281q0 133 67.5 206.5t214.5 87.5l389 41v107q0 129 -57 190q-55 59 -170 60q-55 0 -164 -10q-131 -12 -160 -17l-63 -8l-6 68q230 37 393 36q299 0 299 -319v-588q10 -74 154 -86l-4 -65q-10 0 -64 4q-152 -170 -151 -226q0 -45 26.5 -73.5t69.5 -28.5l114 14l9 -67 q-78 -16 -131 -17q-72 0 -117 45q-47 47 -47 123q0 84 162 246q-57 23 -82 62q-193 -84 -422 -84q-123 0 -191 77q-69 81 -69 222zM188 281q0 -111 49.5 -172.5t137.5 -61.5q96 0 192 21q115 25 160 41l57 20v420l-381 -37q-215 -20 -215 -231z" />
<glyph unicode="&#x106;" horiz-adv-x="1097" d="M119 711q0 162 10 250q12 104 43 202q31 96 88 158q53 57 148 94q92 37 221 37q98 0 182 -8q98 -10 145 -21l52 -10l-7 -72q-211 41 -372 41q-115 0 -193 -32q-82 -35 -127 -86q-47 -55 -71 -144q-23 -88 -33 -182q-8 -82 -8 -227.5t8 -227.5q10 -100 35 -180 q27 -86 73 -139q45 -51 125 -82t191 -31q57 0 159 10q45 4 152 21l61 10l7 -69q-223 -41 -379 -41q-157 0 -258 49q-102 49 -156 147q-55 100 -76 225q-20 122 -20 308zM377 1692l393 196l33 -63l-395 -189z" />
<glyph unicode="&#x107;" horiz-adv-x="892" d="M123 535q0 287 94 395q96 113 326 112l245 -20l-4 -66q-156 20 -241 21q-195 0 -269 -98q-76 -100 -75 -344q0 -272 67 -381q68 -106 277 -107l245 19l5 -66q-172 -18 -250 -18q-246 0 -334 118q-86 118 -86 435zM281 1303l393 196l33 -63l-396 -189z" />
<glyph unicode="&#x108;" horiz-adv-x="1097" d="M119 711q0 162 10 250q12 104 43 202q31 96 88 158q53 57 148 94q92 37 221 37q98 0 182 -8q98 -10 145 -21l52 -10l-7 -72q-211 41 -372 41q-115 0 -193 -32q-82 -35 -127 -86q-47 -55 -71 -144q-23 -88 -33 -182q-8 -82 -8 -227.5t8 -227.5q10 -100 35 -180 q27 -86 73 -139q45 -51 125 -82t191 -31q57 0 159 10q45 4 152 21l61 10l7 -69q-223 -41 -379 -41q-157 0 -258 49q-102 49 -156 147q-55 100 -76 225q-20 122 -20 308zM328 1647l274 256h62l274 -256h-92l-213 196l-211 -196h-94z" />
<glyph unicode="&#x109;" horiz-adv-x="892" d="M123 535q0 287 94 395q96 113 326 112l245 -20l-4 -66q-156 20 -241 21q-195 0 -269 -98q-76 -100 -75 -344q0 -272 67 -381q68 -106 277 -107l245 19l5 -66q-172 -18 -250 -18q-246 0 -334 118q-86 118 -86 435zM211 1229l248 270h57l250 -270h-88l-189 205l-190 -205 h-88z" />
<glyph unicode="&#x10a;" horiz-adv-x="1097" d="M119 711q0 162 10 250q12 104 43 202q31 96 88 158q53 57 148 94q92 37 221 37q98 0 182 -8q98 -10 145 -21l52 -10l-7 -72q-211 41 -372 41q-115 0 -193 -32q-82 -35 -127 -86q-47 -55 -71 -144q-23 -88 -33 -182q-8 -82 -8 -227.5t8 -227.5q10 -100 35 -180 q27 -86 73 -139q45 -51 125 -82t191 -31q57 0 159 10q45 4 152 21l61 10l7 -69q-223 -41 -379 -41q-157 0 -258 49q-102 49 -156 147q-55 100 -76 225q-20 122 -20 308zM555 1731v112h72v-112h-72z" />
<glyph unicode="&#x10b;" horiz-adv-x="892" d="M123 535q0 287 94 395q96 113 326 112l245 -20l-4 -66q-156 20 -241 21q-195 0 -269 -98q-76 -100 -75 -344q0 -272 67 -381q68 -106 277 -107l245 19l5 -66q-172 -18 -250 -18q-246 0 -334 118q-86 118 -86 435zM453 1321v113h71v-113h-71z" />
<glyph unicode="&#x10c;" horiz-adv-x="1097" d="M119 711q0 162 10 250q12 104 43 202q31 96 88 158q53 57 148 94q92 37 221 37q98 0 182 -8q98 -10 145 -21l52 -10l-7 -72q-211 41 -372 41q-115 0 -193 -32q-82 -35 -127 -86q-47 -55 -71 -144q-23 -88 -33 -182q-8 -82 -8 -227.5t8 -227.5q10 -100 35 -180 q27 -86 73 -139q45 -51 125 -82t191 -31q57 0 159 10q45 4 152 21l61 10l7 -69q-223 -41 -379 -41q-157 0 -258 49q-102 49 -156 147q-55 100 -76 225q-20 122 -20 308zM291 1913h92l213 -197l211 197h94l-274 -256h-62z" />
<glyph unicode="&#x10d;" horiz-adv-x="892" d="M123 535q0 287 94 395q96 113 326 112l245 -20l-4 -66q-156 20 -241 21q-195 0 -269 -98q-76 -100 -75 -344q0 -272 67 -381q68 -106 277 -107l245 19l5 -66q-172 -18 -250 -18q-246 0 -334 118q-86 118 -86 435zM211 1499h86l192 -203l191 203h86l-250 -270h-57z" />
<glyph unicode="&#x10e;" horiz-adv-x="1335" d="M211 0v1434h532q131 0 226 -58q98 -59 151 -157q53 -96 78 -220q25 -119 25 -262q0 -131 -27 -268q-25 -123 -78 -233q-51 -104 -149 -173q-94 -63 -226 -63h-532zM285 70h458q111 0 193 59q82 61 125 160q41 96 63 213q20 104 21 235q0 127 -21 228q-23 113 -63 198 q-45 94 -125 148q-82 53 -193 53h-458v-1294zM307 1913h92l213 -197l211 197h95l-275 -256h-61z" />
<glyph unicode="&#x10f;" horiz-adv-x="1447" d="M123 498q0 281 94 411q96 133 336 133q117 0 270 -24v416h72v-1434h-72v86q-6 -4 -51 -29q-41 -23 -127 -47q-98 -29 -176 -28q-49 0 -86 6q-41 6 -90 32q-52 28 -86 80q-33 49 -57 154q-27 111 -27 244zM195 492q0 -137 26 -240q25 -98 70 -137q47 -41 86 -54 q47 -14 92 -14q174 4 354 107v798q-212 25 -270 25q-205 0 -283 -119q-75 -114 -75 -366zM1204 989v445h70v-445h-70z" />
<glyph unicode="&#x110;" horiz-adv-x="1335" d="M53 684v70h158v680h532q131 0 226 -58q98 -59 151 -157q53 -96 78 -220q25 -119 25 -262q0 -131 -27 -268q-25 -123 -78 -233q-51 -104 -149 -173q-94 -63 -226 -63h-532v684h-158zM285 70h458q111 0 193 59q82 61 125 160q41 96 63 213q20 104 21 235q0 127 -21 228 q-23 113 -63 198q-45 94 -125 148q-82 53 -193 53h-458v-610h362v-70h-362v-614z" />
<glyph unicode="&#x111;" horiz-adv-x="1099" d="M123 498q0 281 94 411q96 133 336 133q117 0 270 -24v256h-354v65h354v95h72v-95h121v-65h-121v-1274h-72v86q-6 -4 -51 -29q-41 -23 -127 -47q-98 -29 -176 -28q-49 0 -86 6q-41 6 -90 32q-52 28 -86 80q-33 49 -57 154q-27 111 -27 244zM195 492q0 -137 26 -240 q25 -98 70 -137q47 -41 86 -54q47 -14 92 -14q174 4 354 107v798q-212 25 -270 25q-205 0 -283 -119q-75 -114 -75 -366z" />
<glyph unicode="&#x112;" horiz-adv-x="1169" d="M211 0v1434h838v-70h-764v-592h641v-70h-641v-632h764v-70h-838zM332 1704v65h588v-65h-588z" />
<glyph unicode="&#x113;" horiz-adv-x="1036" d="M123 512q0 530 414 530q195 0 292 -116q96 -115 97 -375v-68h-727q0 -223 69.5 -329.5t241.5 -106.5q141 0 373 19l4 -66q-231 -18 -379 -18q-217 2 -301 133t-84 397zM199 549h651q0 229 -76 330q-74 98 -237 98q-338 0 -338 -428zM266 1315v65h547v-65h-547z" />
<glyph unicode="&#x114;" horiz-adv-x="1169" d="M211 0v1434h838v-70h-764v-592h641v-70h-641v-632h764v-70h-838zM365 1892h71q0 -82 62 -131q59 -47 149 -47t150 47q61 49 61 131h72q0 -115 -82 -178q-84 -66 -201 -65.5t-201 65.5q-81 63 -81 178z" />
<glyph unicode="&#x115;" horiz-adv-x="1036" d="M123 512q0 530 414 530q195 0 292 -116q96 -115 97 -375v-68h-727q0 -223 69.5 -329.5t241.5 -106.5q141 0 373 19l4 -66q-231 -18 -379 -18q-217 2 -301 133t-84 397zM199 549h651q0 229 -76 330q-74 98 -237 98q-338 0 -338 -428zM254 1481h72q0 -84 57 -142 q55 -55 154 -55q100 0 155.5 55.5t55.5 141.5h71q0 -115 -77.5 -188.5t-204.5 -73.5t-205 73.5t-78 188.5z" />
<glyph unicode="&#x116;" horiz-adv-x="1169" d="M211 0v1434h838v-70h-764v-592h641v-70h-641v-632h764v-70h-838zM590 1731v112h72v-112h-72z" />
<glyph unicode="&#x117;" horiz-adv-x="1036" d="M123 512q0 530 414 530q195 0 292 -116q96 -115 97 -375v-68h-727q0 -223 69.5 -329.5t241.5 -106.5q141 0 373 19l4 -66q-231 -18 -379 -18q-217 2 -301 133t-84 397zM199 549h651q0 229 -76 330q-74 98 -237 98q-338 0 -338 -428zM483 1321v113h72v-113h-72z" />
<glyph unicode="&#x118;" horiz-adv-x="1169" d="M211 0v1434h838v-70h-764v-592h641v-70h-641v-632h764v-70h-66q-31 -27 -94 -106q-70 -88 -70 -132q0 -45 26.5 -73.5t69.5 -28.5l115 14l8 -67q-78 -16 -131 -17q-74 0 -119 45.5t-45 122.5q0 84 158 242h-690z" />
<glyph unicode="&#x119;" horiz-adv-x="1036" d="M123 512q0 530 414 530q195 0 292 -116q96 -115 97 -375v-68h-727q0 -223 69.5 -329.5t241.5 -106.5q141 0 373 19l4 -66q-18 0 -29 -2q-39 -39 -100.5 -119t-61.5 -117q0 -45 27 -73.5t70 -28.5l114 14l8 -67q-78 -16 -131 -17q-74 0 -118.5 45.5t-44.5 122.5 q0 84 149 234q-221 -10 -262 -10q-217 2 -301 133t-84 397zM199 549h651q0 229 -76 330q-74 98 -237 98q-338 0 -338 -428z" />
<glyph unicode="&#x11a;" horiz-adv-x="1169" d="M211 0v1434h838v-70h-764v-592h641v-70h-641v-632h764v-70h-838zM328 1913h92l213 -197l211 197h94l-274 -256h-62z" />
<glyph unicode="&#x11b;" horiz-adv-x="1036" d="M123 512q0 530 414 530q195 0 292 -116q96 -115 97 -375v-68h-727q0 -223 69.5 -329.5t241.5 -106.5q141 0 373 19l4 -66q-231 -18 -379 -18q-217 2 -301 133t-84 397zM199 549h651q0 229 -76 330q-74 98 -237 98q-338 0 -338 -428zM242 1499h86l192 -203l191 203h86 l-250 -270h-58z" />
<glyph unicode="&#x11c;" horiz-adv-x="1261" d="M123 711q0 178 24 307q27 135 80 229q58 101 166 154q104 51 266 51q219 0 451 -51l-6 -72q-262 53 -445 53q-143 0 -233 -45t-139 -139q-49 -96 -68 -207q-18 -115 -18 -280q0 -152 20 -279q18 -114 68 -203q51 -94 141 -135q92 -43 229 -43q51 0 154 10q41 4 156 21 q12 2 23.5 3t18.5 3t13 3t9 1h3v549h-307v70h381v-678q-283 -51 -451 -51q-303 0 -419 182q-117 181 -117 547zM348 1647l275 256h61l274 -256h-92l-213 196l-211 -196h-94z" />
<glyph unicode="&#x11d;" horiz-adv-x="1030" d="M113 -164q0 66 24 113q27 49 53 74q33 31 97 75q-45 27 -45 133q0 16 14 54q14 35 33 73l14 33q-176 59 -176 311q0 342 350 342q47 0 103 -6q33 -4 86 -14l28 -6l287 6v-72h-221q82 -76 82 -250q0 -186 -86 -260q-88 -76 -287 -75q-68 0 -111 8q-47 -119 -47 -144 q0 -31 4 -51q2 -14 17 -30q10 -14 47 -21q6 -2 80 -6q31 -2 133 -2q201 0 282 -58q80 -55 80 -237q0 -166 -104 -240q-106 -76 -332 -75q-244 0 -325 69q-80 68 -80 256zM186 -162q0 -152 64 -207q65 -55 270 -55q186 0 275 59q84 57 84 191q0 150 -62 188q-63 41 -229 41 l-248 6q-94 -66 -123 -106q-31 -43 -31 -117zM201 702q0 -143 57 -206.5t211 -63.5q160 0 229 60q68 57 68 210q0 166 -61.5 221.5t-229.5 55.5q-139 0 -206.5 -61.5t-67.5 -215.5zM240 1229l247 270h58l250 -270h-88l-189 205l-190 -205h-88z" />
<glyph unicode="&#x11e;" horiz-adv-x="1261" d="M123 711q0 178 24 307q27 135 80 229q58 101 166 154q104 51 266 51q219 0 451 -51l-6 -72q-262 53 -445 53q-143 0 -233 -45t-139 -139q-49 -96 -68 -207q-18 -115 -18 -280q0 -152 20 -279q18 -114 68 -203q51 -94 141 -135q92 -43 229 -43q51 0 154 10q41 4 156 21 q12 2 23.5 3t18.5 3t13 3t9 1h3v549h-307v70h381v-678q-283 -51 -451 -51q-303 0 -419 182q-117 181 -117 547zM389 1890h72q0 -82 61 -131q59 -47 149.5 -47t149.5 47q61 49 62 131h71q0 -115 -82 -178q-84 -66 -200.5 -65.5t-200.5 65.5q-82 63 -82 178z" />
<glyph unicode="&#x11f;" horiz-adv-x="1030" d="M113 -164q0 66 24 113q27 49 53 74q33 31 97 75q-45 27 -45 133q0 16 14 54q14 35 33 73l14 33q-176 59 -176 311q0 342 350 342q47 0 103 -6q33 -4 86 -14l28 -6l287 6v-72h-221q82 -76 82 -250q0 -186 -86 -260q-88 -76 -287 -75q-68 0 -111 8q-47 -119 -47 -144 q0 -31 4 -51q2 -14 17 -30q10 -14 47 -21q6 -2 80 -6q31 -2 133 -2q201 0 282 -58q80 -55 80 -237q0 -166 -104 -240q-106 -76 -332 -75q-244 0 -325 69q-80 68 -80 256zM186 -162q0 -152 64 -207q65 -55 270 -55q186 0 275 59q84 57 84 191q0 150 -62 188q-63 41 -229 41 l-248 6q-94 -66 -123 -106q-31 -43 -31 -117zM201 702q0 -143 57 -206.5t211 -63.5q160 0 229 60q68 57 68 210q0 166 -61.5 221.5t-229.5 55.5q-139 0 -206.5 -61.5t-67.5 -215.5zM233 1481h72q0 -84 57 -142q55 -55 153.5 -55t154.5 55q57 57 57 142h72q0 -115 -78 -188.5 t-205 -73.5t-205 73.5t-78 188.5z" />
<glyph unicode="&#x120;" horiz-adv-x="1261" d="M123 711q0 178 24 307q27 135 80 229q58 101 166 154q104 51 266 51q219 0 451 -51l-6 -72q-262 53 -445 53q-143 0 -233 -45t-139 -139q-49 -96 -68 -207q-18 -115 -18 -280q0 -152 20 -279q18 -114 68 -203q51 -94 141 -135q92 -43 229 -43q51 0 154 10q41 4 156 21 q12 2 23.5 3t18.5 3t13 3t9 1h3v549h-307v70h381v-678q-283 -51 -451 -51q-303 0 -419 182q-117 181 -117 547zM596 1731v112h72v-112h-72z" />
<glyph unicode="&#x121;" horiz-adv-x="1030" d="M113 -164q0 66 24 113q27 49 53 74q33 31 97 75q-45 27 -45 133q0 16 14 54q14 35 33 73l14 33q-176 59 -176 311q0 342 350 342q47 0 103 -6q33 -4 86 -14l28 -6l287 6v-72h-221q82 -76 82 -250q0 -186 -86 -260q-88 -76 -287 -75q-68 0 -111 8q-47 -119 -47 -144 q0 -31 4 -51q2 -14 17 -30q10 -14 47 -21q6 -2 80 -6q31 -2 133 -2q201 0 282 -58q80 -55 80 -237q0 -166 -104 -240q-106 -76 -332 -75q-244 0 -325 69q-80 68 -80 256zM186 -162q0 -152 64 -207q65 -55 270 -55q186 0 275 59q84 57 84 191q0 150 -62 188q-63 41 -229 41 l-248 6q-94 -66 -123 -106q-31 -43 -31 -117zM201 702q0 -143 57 -206.5t211 -63.5q160 0 229 60q68 57 68 210q0 166 -61.5 221.5t-229.5 55.5q-139 0 -206.5 -61.5t-67.5 -215.5zM479 1321v113h72v-113h-72z" />
<glyph unicode="&#x122;" horiz-adv-x="1261" d="M123 711q0 178 24 307q27 135 80 229q58 101 166 154q104 51 266 51q219 0 451 -51l-6 -72q-262 53 -445 53q-143 0 -233 -45t-139 -139q-49 -96 -68 -207q-18 -115 -18 -280q0 -152 20 -279q18 -114 68 -203q51 -94 141 -135q92 -43 229 -43q51 0 154 10q41 4 156 21 q12 2 23.5 3t18.5 3t13 3t9 1h3v549h-307v70h381v-678q-283 -51 -451 -51q-303 0 -419 182q-117 181 -117 547zM557 -547l78 387h74l-95 -387h-57z" />
<glyph unicode="&#x123;" horiz-adv-x="1030" d="M113 -164q0 66 24 113q27 49 53 74q33 31 97 75q-45 27 -45 133q0 16 14 54q14 35 33 73l14 33q-176 59 -176 311q0 342 350 342q47 0 103 -6q33 -4 86 -14l28 -6l287 6v-72h-221q82 -76 82 -250q0 -186 -86 -260q-88 -76 -287 -75q-68 0 -111 8q-47 -119 -47 -144 q0 -31 4 -51q2 -14 17 -30q10 -14 47 -21q6 -2 80 -6q31 -2 133 -2q201 0 282 -58q80 -55 80 -237q0 -166 -104 -240q-106 -76 -332 -75q-244 0 -325 69q-80 68 -80 256zM186 -162q0 -152 64 -207q65 -55 270 -55q186 0 275 59q84 57 84 191q0 150 -62 188q-63 41 -229 41 l-248 6q-94 -66 -123 -106q-31 -43 -31 -117zM201 702q0 -143 57 -206.5t211 -63.5q160 0 229 60q68 57 68 210q0 166 -61.5 221.5t-229.5 55.5q-139 0 -206.5 -61.5t-67.5 -215.5zM418 1214l94 388h57l-77 -388h-74z" />
<glyph unicode="&#x124;" horiz-adv-x="1423" d="M211 0v1434h74v-680h856v680h73v-1434h-73v684h-856v-684h-74zM410 1647l274 256h61l275 -256h-92l-213 196l-211 -196h-94z" />
<glyph unicode="&#x125;" horiz-adv-x="1159" d="M207 0v1536h72v-573q181 80 356 79q206 0 270 -104q66 -106 66 -406v-532h-72v528q0 270 -49 359q-49 90 -215 90q-86 0 -170 -21q-96 -23 -137 -41l-49 -20v-895h-72zM303 1618l248 270h57l250 -270h-88l-188 205l-191 -205h-88z" />
<glyph unicode="&#x126;" horiz-adv-x="1423" d="M39 1069v66h172v299h74v-299h856v299h73v-299h191v-66h-191v-1069h-73v684h-856v-684h-74v1069h-172zM285 754h856v315h-856v-315z" />
<glyph unicode="&#x127;" horiz-adv-x="1159" d="M61 1253v66h146v217h72v-217h329v-66h-329v-290q181 80 356 79q206 0 270 -104q66 -106 66 -406v-532h-72v528q0 270 -49 359q-49 90 -215 90q-86 0 -170 -21q-96 -23 -137 -41l-49 -20v-895h-72v1253h-146z" />
<glyph unicode="&#x128;" horiz-adv-x="460" d="M-94 1757q117 117 184 117q49 0 170 -64q125 -66 156 -65q18 0 53 27q37 27 66 53l28 24l23 -57q-106 -113 -170 -113q-45 0 -170 65.5t-156 65.5q-18 0 -59 -28q-43 -31 -74 -58l-31 -26zM195 0v1434h73v-1434h-73z" />
<glyph unicode="&#x129;" horiz-adv-x="532" d="M-39 1368q102 96 168 96q43 0 156 -55q109 -53 145.5 -53t126.5 84l18 -62q-86 -88 -149 -88q-41 0 -155.5 55.5t-145.5 55.5q-43 0 -143 -92zM231 0v1024h72v-1024h-72z" />
<glyph unicode="&#x12a;" horiz-adv-x="460" d="M-61 1724v66h587v-66h-587zM195 0v1434h73v-1434h-73z" />
<glyph unicode="&#x12b;" horiz-adv-x="532" d="M-6 1315v65h547v-65h-547zM231 0v1024h72v-1024h-72z" />
<glyph unicode="&#x12c;" horiz-adv-x="460" d="M-51 1890h71q0 -82 62 -131q59 -47 149.5 -47t149.5 47q61 49 61 131h72q0 -115 -82 -178q-84 -66 -200.5 -65.5t-200.5 65.5q-82 63 -82 178zM195 0v1434h73v-1434h-73z" />
<glyph unicode="&#x12d;" horiz-adv-x="532" d="M-14 1481h71q0 -86 55.5 -141.5t156 -55.5t155.5 55.5t55 141.5h72q0 -115 -78 -189q-76 -74 -205 -73.5t-205 73.5q-77 74 -77 189zM231 0v1024h72v-1024h-72z" />
<glyph unicode="&#x12e;" horiz-adv-x="460" d="M27 -242q0 84 168 252v1424h73v-1434h-2q-31 -27 -94 -106q-70 -88 -70 -132q0 -45 27 -73.5t70 -28.5l114 14l9 -67q-78 -16 -132 -17q-74 0 -118.5 45t-44.5 123z" />
<glyph unicode="&#x12f;" horiz-adv-x="438" d="M14 -242q0 84 168 252v1014h72v-1022h2q-166 -175 -166 -240q0 -45 26.5 -73.5t69.5 -28.5l115 14l8 -67q-78 -16 -131 -17q-74 0 -119 45t-45 123zM182 1321v113h72v-113h-72z" />
<glyph unicode="&#x130;" horiz-adv-x="460" d="M195 0v1434h73v-1434h-73zM195 1731v112h71v-112h-71z" />
<glyph unicode="&#x131;" horiz-adv-x="532" d="M231 0v1024h72v-1024h-72z" />
<glyph unicode="&#x134;" horiz-adv-x="620" d="M45 1647l274 256h62l274 -256h-92l-213 196l-211 -196h-94zM72 -80h106q18 0 72 12q39 8 53 27q10 12 27 53q14 37 18 90q4 70 4 134v1200h74v-609q0 -145 1 -350t1 -262q0 -51 -4 -121q-2 -37 -18 -90q-12 -43 -25 -65q-12 -25 -39 -43l-49 -25q-23 -12 -64 -14 q-10 0 -35.5 -3.5t-35.5 -3.5h-86v70z" />
<glyph unicode="&#x135;" horiz-adv-x="475" d="M-61 -383q178 96 229 170q53 76 53 225v1012h72v-1014q0 -176 -64 -266q-61 -86 -262 -190zM-31 1229l248 270h57l250 -270h-88l-188 205l-191 -205h-88z" />
<glyph unicode="&#x136;" horiz-adv-x="1220" d="M211 0v1434h74v-691h264l450 691h88l-473 -721l506 -713h-94l-473 674h-268v-674h-74zM537 -547l77 387h74l-94 -387h-57z" />
<glyph unicode="&#x137;" horiz-adv-x="987" d="M207 0v1495h72v-897h192l373 426h84l-393 -463l393 -561h-84l-373 526h-192v-526h-72zM399 -547l78 387h74l-94 -387h-58z" />
<glyph unicode="&#x139;" d="M211 0v1434h74v-1364h698v-70h-772zM330 1692l393 196l33 -63l-396 -189z" />
<glyph unicode="&#x13a;" horiz-adv-x="458" d="M18 1712l394 197l32 -64l-395 -188zM195 0v1495h71v-1495h-71z" />
<glyph unicode="&#x13b;" d="M211 0v1434h74v-1364h698v-70h-772zM469 -547l78 387h74l-95 -387h-57z" />
<glyph unicode="&#x13c;" horiz-adv-x="458" d="M111 -547l77 387h74l-94 -387h-57zM195 0v1495h71v-1495h-71z" />
<glyph unicode="&#x13d;" d="M211 0v1434h74v-1364h698v-70h-772zM821 989v445h70v-445h-70z" />
<glyph unicode="&#x13e;" horiz-adv-x="806" d="M195 0v1495h71v-1495h-71zM563 989v445h70v-445h-70z" />
<glyph unicode="&#x141;" d="M8 590l203 141v703h74v-652l428 301l41 -55l-469 -330v-628h698v-70h-772v647l-162 -112z" />
<glyph unicode="&#x142;" horiz-adv-x="458" d="M-4 598l199 139v758h71v-709l166 117l39 -55l-205 -143v-705h-71v653l-160 -110z" />
<glyph unicode="&#x143;" horiz-adv-x="1404" d="M211 0v1434h174l682 -1364h55v1364h74v-1434h-174l-684 1364h-53v-1364h-74zM489 1692l394 196l32 -63l-395 -189z" />
<glyph unicode="&#x144;" horiz-adv-x="1171" d="M207 0v1024h72v-82q180 100 358 100q206 0 270 -104q66 -106 66 -406v-532h-72v528q0 270 -49 359q-49 90 -215 90q-180 -4 -358 -103v-874h-72zM373 1303l393 196l33 -63l-396 -189z" />
<glyph unicode="&#x145;" horiz-adv-x="1404" d="M211 0v1434h174l682 -1364h55v1364h74v-1434h-174l-684 1364h-53v-1364h-74zM627 -547l78 387h73l-94 -387h-57z" />
<glyph unicode="&#x146;" horiz-adv-x="1171" d="M207 0v1024h72v-82q180 100 358 100q206 0 270 -104q66 -106 66 -406v-532h-72v528q0 270 -49 359q-49 90 -215 90q-180 -4 -358 -103v-874h-72zM494 -547l77 387h74l-94 -387h-57z" />
<glyph unicode="&#x147;" horiz-adv-x="1404" d="M211 0v1434h174l682 -1364h55v1364h74v-1434h-174l-684 1364h-53v-1364h-74zM399 1903h93l213 -197l210 197h95l-275 -256h-61z" />
<glyph unicode="&#x148;" horiz-adv-x="1171" d="M207 0v1024h72v-82q180 100 358 100q206 0 270 -104q66 -106 66 -406v-532h-72v528q0 270 -49 359q-49 90 -215 90q-180 -4 -358 -103v-874h-72zM309 1499h86l193 -203l190 203h86l-250 -270h-57z" />
<glyph unicode="&#x14a;" horiz-adv-x="1404" d="M211 0v1434h174l682 -1364h55v1364h74v-203v-610q0 -145 1 -349t1 -262q0 -51 -4 -121q-2 -37 -18 -90q-12 -43 -25 -65q-12 -25 -41 -43q-18 -12 -47 -27q-18 -8 -64 -12q-57 -4 -71 -4q-6 0 -35 -1t-51 -1v69h102q27 0 72 11q37 8 51 26q18 25 31 49q16 35 18 78 q2 45 6 121h-100l-684 1364h-53v-1364h-74z" />
<glyph unicode="&#x14b;" horiz-adv-x="1171" d="M207 0v1024h72v-82q182 100 360 100q203 0 270 -108q66 -104 66 -402v-546q0 -172 -60 -260q-61 -90 -245 -197l-29 63q164 96 213 170t49 226v540q0 258 -49 353q-49 96 -215 96q-182 -4 -360 -103v-874h-72z" />
<glyph unicode="&#x14c;" horiz-adv-x="1341" d="M123 711q0 379 119 559q121 182 430 182q311 0 430 -180t119 -561q0 -393 -115 -559q-117 -170 -434 -170q-168 0 -273 45q-106 45 -168 143q-59 96 -84 223q-24 130 -24 318zM201 711q0 -174 18 -287q18 -109 70 -203q49 -90 143 -129q98 -41 240 -41q150 0 241 37 q94 37 144 125q49 84 67 203q18 114 19 295q0 346 -99 508q-98 164 -372 163q-143 0 -237.5 -43t-143.5 -135q-53 -100 -70 -205q-20 -128 -20 -288zM371 1724v66h587v-66h-587z" />
<glyph unicode="&#x14d;" horiz-adv-x="1075" d="M123 535q0 283 96 395t324 112q211 0 311 -118.5t100 -393.5q0 -299 -84 -423.5t-327 -124.5q-248 0 -334 118q-86 122 -86 435zM199 535q0 -141 12 -226q14 -90 47 -149q37 -63 104.5 -88t180.5 -25q115 0 180 27q68 29 102.5 96.5t42.5 144.5q10 88 11 215 q0 243 -80 344q-80 102 -256 103q-197 0 -270.5 -92t-73.5 -350zM264 1315v65h547v-65h-547z" />
<glyph unicode="&#x14e;" horiz-adv-x="1341" d="M123 711q0 379 119 559q121 182 430 182q311 0 430 -180t119 -561q0 -393 -115 -559q-117 -170 -434 -170q-168 0 -273 45q-106 45 -168 143q-59 96 -84 223q-24 130 -24 318zM201 711q0 -174 18 -287q18 -109 70 -203q49 -90 143 -129q98 -41 240 -41q150 0 241 37 q94 37 144 125q49 84 67 203q18 114 19 295q0 346 -99 508q-98 164 -372 163q-143 0 -237.5 -43t-143.5 -135q-53 -100 -70 -205q-20 -128 -20 -288zM389 1890h72q0 -82 61 -131q59 -47 149.5 -47t149.5 47q61 49 62 131h71q0 -115 -82 -178q-84 -66 -200.5 -65.5 t-200.5 65.5q-82 63 -82 178z" />
<glyph unicode="&#x14f;" horiz-adv-x="1075" d="M123 535q0 283 96 395t324 112q211 0 311 -118.5t100 -393.5q0 -299 -84 -423.5t-327 -124.5q-248 0 -334 118q-86 122 -86 435zM199 535q0 -141 12 -226q14 -90 47 -149q37 -63 104.5 -88t180.5 -25q115 0 180 27q68 29 102.5 96.5t42.5 144.5q10 88 11 215 q0 243 -80 344q-80 102 -256 103q-197 0 -270.5 -92t-73.5 -350zM256 1481h72q0 -84 57 -142q55 -55 154 -55q100 0 155.5 55.5t55.5 141.5h71q0 -115 -78 -189q-76 -74 -204.5 -73.5t-204.5 73.5q-78 74 -78 189z" />
<glyph unicode="&#x150;" horiz-adv-x="1341" d="M123 711q0 379 119 559q121 182 430 182q311 0 430 -180t119 -561q0 -393 -115 -559q-117 -170 -434 -170q-168 0 -273 45q-106 45 -168 143q-59 96 -84 223q-24 130 -24 318zM201 711q0 -174 18 -287q18 -109 70 -203q49 -90 143 -129q98 -41 240 -41q150 0 241 37 q94 37 144 125q49 84 67 203q18 114 19 295q0 346 -99 508q-98 164 -372 163q-143 0 -237.5 -43t-143.5 -135q-53 -100 -70 -205q-20 -128 -20 -288zM274 1675l394 180l28 -61l-391 -178zM666 1675l391 178l30 -59l-393 -180z" />
<glyph unicode="&#x151;" horiz-adv-x="1075" d="M123 535q0 283 96 395t324 112q211 0 311 -118.5t100 -393.5q0 -299 -84 -423.5t-327 -124.5q-248 0 -334 118q-86 122 -86 435zM199 535q0 -141 12 -226q14 -90 47 -149q37 -63 104.5 -88t180.5 -25q115 0 180 27q68 29 102.5 96.5t42.5 144.5q10 88 11 215 q0 243 -80 344q-80 102 -256 103q-197 0 -270.5 -92t-73.5 -350zM246 1274l334 213l36 -55l-333 -213zM625 1274l333 213l37 -55l-333 -213z" />
<glyph unicode="&#x152;" horiz-adv-x="1931" d="M123 707q0 188 24 317q25 131 86.5 231.5t167.5 149.5q102 47 271 47q211 0 321 -18h817v-74h-743v-586h621v-74h-621v-626h743v-76h-815q-184 -16 -323 -16q-168 0 -273 45q-106 45 -168 143q-59 94 -84 223q-24 127 -24 314zM201 711q0 -174 18 -287q18 -109 70 -203 q49 -90 143 -129q98 -41 240 -41q106 0 321 19v1288q-285 25 -321 24q-143 0 -237.5 -43t-143.5 -135q-53 -100 -70 -205q-20 -128 -20 -288z" />
<glyph unicode="&#x153;" horiz-adv-x="1792" d="M123 535q0 287 94 395q96 113 326 112q301 0 377 -245q88 246 372 245q193 0 291 -116.5t98 -374.5v-68h-727q0 -223 70 -329.5t242 -106.5q143 0 372 19l4 -66q-229 -18 -378 -18q-266 0 -346 219q-37 -115 -125 -166q-90 -53 -250 -53q-248 0 -334 118q-86 122 -86 435 zM199 535q0 -141 12 -226q14 -90 47 -149q37 -63 104.5 -88t180.5 -25q115 0 180 27q68 29 102.5 96.5t42.5 144.5q10 88 11 215q0 243 -80 344q-80 102 -256 103q-197 0 -270.5 -92t-73.5 -350zM954 549h652q0 231 -74 329.5t-240 98.5q-338 0 -338 -428z" />
<glyph unicode="&#x154;" horiz-adv-x="1288" d="M211 0v1434h514q217 0 321.5 -98.5t104.5 -311.5q0 -365 -297 -420l324 -604h-84l-320 594h-489v-594h-74zM285 664h440q188 0 268 92t80 268q0 178 -84 258q-86 82 -264 82h-440v-700zM432 1692l393 196l33 -63l-395 -189z" />
<glyph unicode="&#x155;" horiz-adv-x="722" d="M190 1303l394 196l32 -63l-395 -189zM207 0v1024h72v-160l57 39t141 74q109 49 207 67v-69q-197 -40 -405 -178v-797h-72z" />
<glyph unicode="&#x156;" horiz-adv-x="1288" d="M211 0v1434h514q217 0 321.5 -98.5t104.5 -311.5q0 -365 -297 -420l324 -604h-84l-320 594h-489v-594h-74zM285 664h440q188 0 268 92t80 268q0 178 -84 258q-86 82 -264 82h-440v-700zM571 -547l78 387h74l-94 -387h-58z" />
<glyph unicode="&#x157;" horiz-adv-x="722" d="M125 -547l78 387h73l-94 -387h-57zM207 0v1024h72v-160l57 39t141 74q109 49 207 67v-69q-197 -40 -405 -178v-797h-72z" />
<glyph unicode="&#x158;" horiz-adv-x="1288" d="M211 0v1434h514q217 0 321.5 -98.5t104.5 -311.5q0 -365 -297 -420l324 -604h-84l-320 594h-489v-594h-74zM285 664h440q188 0 268 92t80 268q0 178 -84 258q-86 82 -264 82h-440v-700zM342 1903h92l213 -197l211 197h94l-274 -256h-62z" />
<glyph unicode="&#x159;" horiz-adv-x="722" d="M127 1499h86l193 -203l190 203h86l-250 -270h-57zM207 0v1024h72v-160l57 39t141 74q109 49 207 67v-69q-197 -40 -405 -178v-797h-72z" />
<glyph unicode="&#x15a;" horiz-adv-x="1095" d="M109 1096q0 360 442 360q166 0 407 -33l-8 -71q-289 35 -399 34q-365 0 -365 -286q0 -66 9 -107q8 -45 34 -78q29 -35 52 -53q29 -23 77 -37q55 -16 95 -24q57 -12 118 -23q219 -33 320 -108q98 -74 98 -254q0 -231 -108 -330q-111 -100 -326 -100q-80 0 -178 8l-184 16 l-76 8l8 72q291 -35 428 -35q178 0 268 84t90 271q0 147 -77 206q-76 57 -281 89q-106 16 -191 38q-66 18 -133 60q-63 39 -91.5 113t-28.5 180zM336 1692l393 196l33 -63l-395 -189z" />
<glyph unicode="&#x15b;" horiz-adv-x="987" d="M123 768q0 101 55 165.5t129 86.5q78 23 166 22q39 0 158 -8q98 -6 141 -14l53 -8l-4 -68q-203 33 -348 33q-274 0 -274 -205q0 -96 57 -135q58 -40 233 -68q218 -34 295 -86q78 -53 78 -188q0 -172 -98 -242q-100 -72 -291 -71q-59 0 -135 8q-123 12 -143 16l-60 8l8 68 q227 -35 326 -35q160 0 238 51q80 52 79 191q0 104 -61 145q-61 39 -256 68q-188 31 -270 82q-76 49 -76 184zM283 1303l393 196l33 -63l-396 -189z" />
<glyph unicode="&#x15c;" horiz-adv-x="1095" d="M109 1096q0 360 442 360q166 0 407 -33l-8 -71q-289 35 -399 34q-365 0 -365 -286q0 -66 9 -107q8 -45 34 -78q29 -35 52 -53q29 -23 77 -37q55 -16 95 -24q57 -12 118 -23q219 -33 320 -108q98 -74 98 -254q0 -231 -108 -330q-111 -100 -326 -100q-80 0 -178 8l-184 16 l-76 8l8 72q291 -35 428 -35q178 0 268 84t90 271q0 147 -77 206q-76 57 -281 89q-106 16 -191 38q-66 18 -133 60q-63 39 -91.5 113t-28.5 180zM246 1647l274 256h62l274 -256h-92l-213 196l-211 -196h-94z" />
<glyph unicode="&#x15d;" horiz-adv-x="987" d="M123 768q0 101 55 165.5t129 86.5q78 23 166 22q39 0 158 -8q98 -6 141 -14l53 -8l-4 -68q-203 33 -348 33q-274 0 -274 -205q0 -96 57 -135q58 -40 233 -68q218 -34 295 -86q78 -53 78 -188q0 -172 -98 -242q-100 -72 -291 -71q-59 0 -135 8q-123 12 -143 16l-60 8l8 68 q227 -35 326 -35q160 0 238 51q80 52 79 191q0 104 -61 145q-61 39 -256 68q-188 31 -270 82q-76 49 -76 184zM217 1229l248 270h57l250 -270h-88l-188 205l-191 -205h-88z" />
<glyph unicode="&#x15e;" horiz-adv-x="1095" d="M109 1096q0 360 442 360q166 0 407 -33l-8 -71q-289 35 -399 34q-365 0 -365 -286q0 -66 9 -107q8 -45 34 -78q29 -35 52 -53q29 -23 77 -37q55 -16 95 -24q57 -12 118 -23q219 -33 320 -108q98 -74 98 -254q0 -223 -98 -322q-100 -100 -305 -106v-105q115 0 164 -30.5 t49 -112.5q0 -152 -168 -152l-166 9l4 57q80 -8 160 -8q98 0 98 94q0 86 -98 86h-111v160q-137 2 -401 32l8 72q291 -35 428 -35q178 0 268 84t90 271q0 147 -77 206q-76 57 -281 89q-106 16 -191 38q-66 18 -133 60q-63 39 -91.5 113t-28.5 180z" />
<glyph unicode="&#x15f;" horiz-adv-x="987" d="M123 768q0 101 55 165.5t129 86.5q78 23 166 22q39 0 158 -8q98 -6 141 -14l53 -8l-4 -68q-203 33 -348 33q-274 0 -274 -205q0 -96 57 -135q58 -40 233 -68q218 -34 295 -86q78 -53 78 -188q0 -162 -90 -235.5t-266 -77.5v-99q115 0 164 -30.5t49 -112.5 q0 -152 -168 -152l-166 9l4 57q80 -8 160 -8q98 0 98 94q0 86 -98 86h-111v158q-4 0 -129 10q-74 6 -125 12l-49 8l8 68q227 -35 326 -35q160 0 238 51q80 52 79 191q0 104 -61 145q-61 39 -256 68q-188 31 -270 82q-76 49 -76 184z" />
<glyph unicode="&#x160;" horiz-adv-x="1095" d="M109 1096q0 360 442 360q166 0 407 -33l-8 -71q-289 35 -399 34q-365 0 -365 -286q0 -66 9 -107q8 -45 34 -78q29 -35 52 -53q29 -23 77 -37q55 -16 95 -24q57 -12 118 -23q219 -33 320 -108q98 -74 98 -254q0 -231 -108 -330q-111 -100 -326 -100q-80 0 -178 8l-184 16 l-76 8l8 72q291 -35 428 -35q178 0 268 84t90 271q0 147 -77 206q-76 57 -281 89q-106 16 -191 38q-66 18 -133 60q-63 39 -91.5 113t-28.5 180zM252 1913h92l213 -197l211 197h94l-274 -256h-62z" />
<glyph unicode="&#x161;" horiz-adv-x="987" d="M123 768q0 101 55 165.5t129 86.5q78 23 166 22q39 0 158 -8q98 -6 141 -14l53 -8l-4 -68q-203 33 -348 33q-274 0 -274 -205q0 -96 57 -135q58 -40 233 -68q218 -34 295 -86q78 -53 78 -188q0 -172 -98 -242q-100 -72 -291 -71q-59 0 -135 8q-123 12 -143 16l-60 8l8 68 q227 -35 326 -35q160 0 238 51q80 52 79 191q0 104 -61 145q-61 39 -256 68q-188 31 -270 82q-76 49 -76 184zM231 1499h86l193 -203l190 203h86l-249 -270h-58z" />
<glyph unicode="&#x162;" horiz-adv-x="1024" d="M0 1364v70h1024v-70h-473v-1364h-74v1364h-477zM434 -547l78 387h74l-94 -387h-58z" />
<glyph unicode="&#x163;" horiz-adv-x="759" d="M72 958v66h161v334h72v-334h373v-66h-373v-536q0 -233 35 -307q33 -70 154 -70l200 16l6 -65q-143 -16 -206 -16q-143 0 -203 75q-57 72 -58 289v614h-161zM303 -547l78 387h74l-95 -387h-57z" />
<glyph unicode="&#x164;" horiz-adv-x="1024" d="M0 1364v70h1024v-70h-473v-1364h-74v1364h-477zM209 1903h92l213 -197l211 197h94l-274 -256h-62z" />
<glyph unicode="&#x165;" horiz-adv-x="1107" d="M72 958v66h161v334h72v-334h373v-66h-373v-536q0 -233 35 -307q33 -70 154 -70l200 16l6 -65q-143 -16 -206 -16q-143 0 -203 75q-57 72 -58 289v614h-161zM864 989v445h70v-445h-70z" />
<glyph unicode="&#x166;" horiz-adv-x="1024" d="M0 1364v70h1024v-70h-473v-619h385v-65h-385v-680h-74v680h-360v65h360v619h-477z" />
<glyph unicode="&#x167;" horiz-adv-x="759" d="M72 958v66h161v334h72v-334h373v-66h-373v-376h-72v376h-161zM88 516v66h145v-66h-145zM233 344v172h72v-94q0 -233 35 -307q33 -70 154 -70l200 16l6 -65q-143 -16 -206 -16q-143 0 -203 75q-58 72 -58 289zM305 516v66h330v-66h-330z" />
<glyph unicode="&#x168;" horiz-adv-x="1312" d="M184 401v1033h74v-1033q0 -186 100.5 -268t288.5 -82q203 0 307 80q102 78 103 270v1033h73v-1033q0 -223 -122.5 -321t-360.5 -98q-224 0 -344 98q-119 98 -119 321zM330 1757q117 117 184 117q49 0 170 -64q125 -66 156 -65q18 0 53 27q37 27 65 53l29 24l23 -57 q-106 -113 -170 -113q-45 0 -170 65.5t-156 65.5q-18 0 -59 -28q-35 -25 -72 -58l-33 -26z" />
<glyph unicode="&#x169;" horiz-adv-x="1138" d="M190 492v532h72v-528q0 -270 49 -359q49 -90 215 -90q174 0 332 100l4 3v874h72v-1024h-72v82l-17.5 -9t-31.5 -18q-27 -16 -121 -45q-92 -29 -166 -28q-206 0 -270 104q-66 107 -66 406zM264 1368q102 96 168 96q43 0 156 -55q109 -53 145.5 -53t126.5 84l19 -62 q-86 -88 -150 -88q-41 0 -155.5 55.5t-145.5 55.5q-43 0 -143 -92z" />
<glyph unicode="&#x16a;" horiz-adv-x="1312" d="M184 401v1033h74v-1033q0 -186 100.5 -268t288.5 -82q203 0 307 80q102 78 103 270v1033h73v-1033q0 -223 -122.5 -321t-360.5 -98q-224 0 -344 98q-119 98 -119 321zM362 1724v66h588v-66h-588z" />
<glyph unicode="&#x16b;" horiz-adv-x="1138" d="M190 492v532h72v-528q0 -270 49 -359q49 -90 215 -90q174 0 332 100l4 3v874h72v-1024h-72v82l-17.5 -9t-31.5 -18q-27 -16 -121 -45q-92 -29 -166 -28q-206 0 -270 104q-66 107 -66 406zM297 1315v65h547v-65h-547z" />
<glyph unicode="&#x16c;" horiz-adv-x="1312" d="M184 401v1033h74v-1033q0 -186 100.5 -268t288.5 -82q203 0 307 80q102 78 103 270v1033h73v-1033q0 -223 -122.5 -321t-360.5 -98q-224 0 -344 98q-119 98 -119 321zM375 1890h71q0 -82 62 -131q59 -47 149.5 -47t149.5 47q61 49 61 131h72q0 -115 -82 -178 q-84 -66 -200.5 -65.5t-200.5 65.5q-82 63 -82 178z" />
<glyph unicode="&#x16d;" horiz-adv-x="1138" d="M190 492v532h72v-528q0 -270 49 -359q49 -90 215 -90q174 0 332 100l4 3v874h72v-1024h-72v82l-17.5 -9t-31.5 -18q-27 -16 -121 -45q-92 -29 -166 -28q-206 0 -270 104q-66 107 -66 406zM287 1481h71q0 -86 55.5 -141.5t156 -55.5t155.5 55.5t55 141.5h72 q0 -115 -78 -188.5t-205 -73.5t-204.5 73.5t-77.5 188.5z" />
<glyph unicode="&#x16e;" horiz-adv-x="1312" d="M184 401v1033h74v-1033q0 -186 100.5 -268t288.5 -82q203 0 307 80q102 78 103 270v1033h73v-1033q0 -223 -122.5 -321t-360.5 -98q-224 0 -344 98q-119 98 -119 321zM459 1741q0 90 53 137q57 51 145 51t146 -51q53 -47 53 -137q0 -92 -53 -139q-55 -49 -145.5 -49.5 t-145.5 49.5q-53 47 -53 139zM526 1740.5q0 -59.5 35 -93.5q33 -33 96.5 -33t96.5 33q35 35 34.5 94t-34.5 94q-33 33 -96.5 33t-96.5 -33q-35 -35 -35 -94.5z" />
<glyph unicode="&#x16f;" horiz-adv-x="1138" d="M190 492v532h72v-528q0 -270 49 -359q49 -90 215 -90q174 0 332 100l4 3v874h72v-1024h-72v82l-17.5 -9t-31.5 -18q-27 -16 -121 -45q-92 -29 -166 -28q-206 0 -270 104q-66 107 -66 406zM391 1331q0 84 58 139q59 55 139 56q82 0 137 -55.5t55 -139.5q0 -82 -55 -137 q-57 -57 -137 -57q-82 0 -139.5 57t-57.5 137zM461 1331q0 -52 37 -92q37 -39 90 -39q51 0 88 39q37 40 37 92q0 53 -37 90q-39 39 -88 39q-51 0 -90 -39q-37 -37 -37 -90z" />
<glyph unicode="&#x170;" horiz-adv-x="1312" d="M184 401v1033h74v-1033q0 -186 100.5 -268t288.5 -82q203 0 307 80q102 78 103 270v1033h73v-1033q0 -223 -122.5 -321t-360.5 -98q-224 0 -344 98q-119 98 -119 321zM322 1620l393 180l28 -61l-391 -178zM713 1620l391 178l31 -59l-394 -180z" />
<glyph unicode="&#x171;" horiz-adv-x="1138" d="M190 492v532h72v-528q0 -270 49 -359q49 -90 215 -90q174 0 332 100l4 3v874h72v-1024h-72v82l-17.5 -9t-31.5 -18q-27 -16 -121 -45q-92 -29 -166 -28q-206 0 -270 104q-66 107 -66 406zM279 1274l333 213l37 -55l-334 -213zM657 1274l334 213l37 -55l-334 -213z" />
<glyph unicode="&#x172;" horiz-adv-x="1312" d="M184 401v1033h74v-1033q0 -186 100.5 -268t288.5 -82q203 0 307 80q102 78 103 270v1033h73v-1033q0 -338 -305 -403q-39 -39 -100 -119t-61 -117q0 -45 26.5 -73.5t69.5 -28.5l114 14l9 -67q-78 -16 -131 -17q-72 0 -117 45q-47 47 -47 123q0 80 141 228q-70 -4 -82 -4 q-224 0 -344 98q-119 98 -119 321z" />
<glyph unicode="&#x173;" horiz-adv-x="1138" d="M190 492v532h72v-528q0 -270 49 -359q49 -90 215 -90q174 0 332 100l4 3v874h72v-1022l-70 10l-2 -2v72l-17.5 -9t-31.5 -18q-27 -16 -121 -45q-92 -29 -166 -28q-206 0 -270 104q-66 107 -66 406zM694 -242q0 84 168 252v-10h72q-31 -27 -94 -106q-70 -88 -70 -132 q0 -45 26.5 -73.5t69.5 -28.5l115 14l8 -67q-78 -16 -131 -17q-74 0 -119 45t-45 123zM934 0v2h2z" />
<glyph unicode="&#x174;" horiz-adv-x="1783" d="M92 1434h72l293 -1364h78l317 1343h82l328 -1343h77l283 1364h72l-295 -1434h-197l-309 1317l-299 -1317h-197zM588 1647l274 256h62l274 -256h-92l-213 196l-211 -196h-94z" />
<glyph unicode="&#x175;" horiz-adv-x="1556" d="M78 1024h76l260 -958h22l303 938h80l301 -938h23l262 958h76l-281 -1024h-139l-283 918l-284 -918h-140zM502 1229l248 270h57l250 -270h-88l-189 205l-190 -205h-88z" />
<glyph unicode="&#x176;" horiz-adv-x="1103" d="M51 1434h84l420 -736l414 736h86l-463 -818v-616h-74v616zM250 1647l274 256h62l274 -256h-92l-213 196l-211 -196h-94z" />
<glyph unicode="&#x177;" horiz-adv-x="980" d="M72 1024h75l302 -958h83l304 958h75l-469 -1495h-75l147 471h-125zM215 1229l248 270h57l250 -270h-88l-188 205l-191 -205h-88z" />
<glyph unicode="&#x178;" horiz-adv-x="1103" d="M51 1434h84l420 -736l414 736h86l-463 -818v-616h-74v616zM305 1716v127h72v-127h-72zM707 1716v127h71v-127h-71z" />
<glyph unicode="&#x179;" horiz-adv-x="1165" d="M123 -2v141l846 1176v49h-846v70h921v-144l-845 -1177v-45h845v-70h-921zM371 1692l393 196l33 -63l-396 -189z" />
<glyph unicode="&#x17a;" horiz-adv-x="983" d="M113 0v66l671 892h-671v66h759v-66l-671 -892h671v-66h-759zM281 1303l393 196l33 -63l-396 -189z" />
<glyph unicode="&#x17b;" horiz-adv-x="1165" d="M123 -2v141l846 1176v49h-846v70h921v-144l-845 -1177v-45h845v-70h-921zM547 1731v112h71v-112h-71z" />
<glyph unicode="&#x17c;" horiz-adv-x="983" d="M113 0v66l671 892h-671v66h759v-66l-671 -892h671v-66h-759zM457 1321v113h71v-113h-71z" />
<glyph unicode="&#x17d;" horiz-adv-x="1165" d="M123 -2v141l846 1176v49h-846v70h921v-144l-845 -1177v-45h845v-70h-921zM272 1913h93l213 -197l210 197h95l-275 -256h-61z" />
<glyph unicode="&#x17e;" horiz-adv-x="983" d="M113 0v66l671 892h-671v66h759v-66l-671 -892h671v-66h-759zM195 1499h86l192 -203l191 203h86l-250 -270h-58z" />
<glyph unicode="&#x192;" d="M143 -496l4 68q126 -6 185 -6q88 0 139 69q49 68 49 230v856h-141v65h141v152q0 205 39 303t143 127q45 10 78 10l191 -6l-4 -65q-168 4 -187 4q-188 0 -188 -299v-226h332v-65h-332v-856q0 -201 -64 -283q-66 -84 -196 -84z" />
<glyph unicode="&#x1fa;" horiz-adv-x="1234" d="M72 0l428 1395q-84 49 -84 161q0 90 53 138q57 51 145 51t146 -51q53 -47 53 -138q0 -104 -76 -155l428 -1397h-73l-138 436h-671l-138 -440h-73zM303 510h631l-260 854h-111zM406 1876l393 197l32 -64l-395 -188zM483 1556q0 -104 90 -122h80q92 22 92 122q0 59 -34 95 q-33 33 -96.5 32.5t-96.5 -32.5q-35 -36 -35 -95z" />
<glyph unicode="&#x1fb;" horiz-adv-x="1058" d="M113 281q0 133 67.5 206.5t214.5 87.5l389 41v107q0 129 -57 190q-55 59 -170 60q-55 0 -164 -10q-131 -12 -160 -17l-63 -8l-6 68q230 37 393 36q299 0 299 -319v-588q10 -74 154 -86l-4 -65q-154 0 -211 82q-193 -84 -422 -84q-123 0 -191 77q-69 81 -69 222zM188 281 q0 -111 49.5 -172.5t137.5 -61.5q96 0 192 21q115 25 160 41l57 20v420l-381 -37q-215 -20 -215 -231zM313 1331q0 84 58 139q59 55 139 56q82 0 137 -55.5t55 -139.5q0 -82 -55 -137q-57 -57 -137 -57q-84 0 -141 57q-56 55 -56 137zM317 1651l394 196l32 -63l-395 -189z M383 1331q0 -52 37 -92q37 -39 90 -39q51 0 88 39q37 40 37 92q0 53 -37 90q-39 39 -88 39q-51 0 -90 -39q-37 -37 -37 -90z" />
<glyph unicode="&#x1fc;" horiz-adv-x="1732" d="M72 0l514 1434h1130v-70h-764v-590h641v-69h-641v-635h764v-70h-837v440h-566l-159 -440h-82zM338 510h541v854h-236zM715 1692l393 196l33 -63l-396 -189z" />
<glyph unicode="&#x1fd;" horiz-adv-x="1693" d="M113 281q0 166 80 221q82 57 299 84l292 30v107q0 129 -57 190q-55 59 -170 60q-152 0 -385 -19l-4 68q213 20 389 20q236 0 285 -196q100 197 352 196q195 0 293 -116q96 -115 96 -375v-68h-727q0 -223 69.5 -329.5t241.5 -106.5q143 0 373 19l4 -66q-229 -18 -379 -18 q-199 0 -293 118l-77 -32q-190 -86 -422 -86q-260 0 -260 299zM188 280.5q0 -112.5 50 -174.5q47 -59 137 -59q84 0 198 25q119 27 175 45q76 27 94 35q-61 119 -62 397l-377 -37q-111 -8 -163 -66q-52 -53 -52 -165.5zM655 1303l394 196l32 -63l-395 -189zM856 549h651 q0 229 -75 330q-74 98 -238 98q-338 0 -338 -428z" />
<glyph unicode="&#x1fe;" horiz-adv-x="1341" d="M123 711q0 379 119 559q121 182 430 182q172 0 286 -57l107 227l68 -29l-113 -237q109 -84 156 -244q45 -154 45 -401q0 -393 -115 -559q-117 -170 -434 -170q-158 0 -275 47l-118 -256l-68 26l123 264q-117 78 -164 236q-47 160 -47 412zM201 711q0 -238 35 -369 q37 -141 131 -211l559 1196q-98 55 -254 55q-143 0 -237.5 -43t-143.5 -135q-53 -100 -70 -205q-20 -128 -20 -288zM428 94q96 -43 244 -43q150 0 241 37q94 37 144 125q49 84 67 203q18 114 19 295q0 430 -156 573zM451 1692l393 196l33 -63l-396 -189z" />
<glyph unicode="&#x1ff;" horiz-adv-x="1075" d="M123 535q0 283 96 395t324 112q96 0 170 -24l92 221l61 -22l-94 -226q182 -102 182 -461q0 -299 -84 -423.5t-327 -124.5q-102 0 -176 18l-95 -233l-61 20l94 233q-104 49 -143 168q-39 118 -39 347zM199 535q0 -199 28.5 -303.5t108.5 -145.5l352 868q-68 23 -145 23 q-197 0 -270.5 -92t-73.5 -350zM326 1303l393 196l33 -63l-396 -189zM391 63q59 -16 152 -16q115 0 180 27q68 29 102.5 96.5t42.5 144.5q10 88 11 215q0 297 -134 394z" />
<glyph unicode="&#x218;" horiz-adv-x="1095" d="M109 1096q0 360 442 360q166 0 407 -33l-8 -71q-289 35 -399 34q-365 0 -365 -286q0 -66 9 -107q8 -45 34 -78q29 -35 52 -53q29 -23 77 -37q55 -16 95 -24q57 -12 118 -23q219 -33 320 -108q98 -74 98 -254q0 -231 -108 -330q-111 -100 -326 -100q-80 0 -178 8l-184 16 l-76 8l8 72q291 -35 428 -35q178 0 268 84t90 271q0 147 -77 206q-76 57 -281 89q-106 16 -191 38q-66 18 -133 60q-63 39 -91.5 113t-28.5 180zM475 -547l78 387h74l-95 -387h-57z" />
<glyph unicode="&#x219;" horiz-adv-x="987" d="M123 768q0 101 55 165.5t129 86.5q78 23 166 22q39 0 158 -8q98 -6 141 -14l53 -8l-4 -68q-203 33 -348 33q-274 0 -274 -205q0 -96 57 -135q58 -40 233 -68q218 -34 295 -86q78 -53 78 -188q0 -172 -98 -242q-100 -72 -291 -71q-59 0 -135 8q-123 12 -143 16l-60 8l8 68 q227 -35 326 -35q160 0 238 51q80 52 79 191q0 104 -61 145q-61 39 -256 68q-188 31 -270 82q-76 49 -76 184zM414 -547l78 387h73l-94 -387h-57z" />
<glyph unicode="&#x2c6;" horiz-adv-x="438" d="M-31 1229l248 270h57l250 -270h-88l-188 205l-191 -205h-88z" />
<glyph unicode="&#x2c7;" horiz-adv-x="438" d="M-31 1499h86l193 -203l190 203h86l-250 -270h-57z" />
<glyph unicode="&#x2d8;" horiz-adv-x="438" d="M-31 1481h72q0 -84 57 -142q55 -55 153.5 -55t154.5 55q57 57 57 142h72q0 -115 -78 -189q-76 -74 -205 -73.5t-205 73.5q-78 74 -78 189z" />
<glyph unicode="&#x2d9;" horiz-adv-x="438" d="M184 1321v113h72v-113h-72z" />
<glyph unicode="&#x2da;" horiz-adv-x="438" d="M33 1331q0 84 57 139.5t139 55.5t137.5 -55.5t55.5 -139.5q0 -82 -55 -137q-57 -57 -138 -57q-84 0 -141 57q-55 55 -55 137zM102 1331q0 -52 37 -92q37 -39 90 -39q51 0 88 39q37 40 37 92q0 53 -37 90q-39 39 -88 39q-51 0 -90 -39q-37 -37 -37 -90z" />
<glyph unicode="&#x2db;" horiz-adv-x="886" d="M344 -242q0 40 43 105q45 68 84 106l43 43l72 -10q-166 -175 -166 -240q0 -45 26.5 -73.5t69.5 -28.5l115 14l8 -67q-78 -16 -131 -17q-74 0 -119 45t-45 123z" />
<glyph unicode="&#x2dc;" horiz-adv-x="438" d="M-72 1368q102 96 168 96q43 0 158 -55q109 -53 143 -53q37 0 127 84l19 -62q-86 -88 -150 -88q-45 0 -157.5 55.5t-143.5 55.5q-43 0 -143 -92z" />
<glyph unicode="&#x2dd;" horiz-adv-x="438" d="M-104 1274l333 213l37 -55l-334 -213zM274 1274l334 213l37 -55l-334 -213z" />
<glyph unicode="&#x300;" horiz-adv-x="438" d="M41 1436l33 63l393 -196l-31 -56z" />
<glyph unicode="&#x301;" horiz-adv-x="438" d="M20 1303l394 196l32 -63l-395 -189z" />
<glyph unicode="&#x302;" horiz-adv-x="438" d="M-31 1229l248 270h57l250 -270h-88l-188 205l-191 -205h-88z" />
<glyph unicode="&#x303;" horiz-adv-x="438" d="M-72 1368q102 96 168 96q43 0 158 -55q109 -53 143 -53q37 0 127 84l19 -62q-86 -88 -150 -88q-45 0 -157.5 55.5t-143.5 55.5q-43 0 -143 -92z" />
<glyph unicode="&#x304;" horiz-adv-x="438" d="M-41 1315v65h547v-65h-547z" />
<glyph unicode="&#x306;" horiz-adv-x="438" d="M-31 1481h72q0 -84 57 -142q55 -55 153.5 -55t154.5 55q57 57 57 142h72q0 -115 -78 -189q-76 -74 -205 -73.5t-205 73.5q-78 74 -78 189z" />
<glyph unicode="&#x307;" horiz-adv-x="438" d="M184 1321v113h72v-113h-72z" />
<glyph unicode="&#x308;" horiz-adv-x="438" d="M0 1307v127h72v-127h-72zM389 1307v127h72v-127h-72z" />
<glyph unicode="&#x30a;" horiz-adv-x="438" d="M33 1331q0 84 57 139.5t139 55.5t137.5 -55.5t55.5 -139.5q0 -82 -55 -137q-57 -57 -138 -57q-84 0 -141 57q-55 55 -55 137zM102 1331q0 -52 37 -92q37 -39 90 -39q51 0 88 39q37 40 37 92q0 53 -37 90q-39 39 -88 39q-51 0 -90 -39q-37 -37 -37 -90z" />
<glyph unicode="&#x30b;" horiz-adv-x="438" d="M-104 1274l333 213l37 -55l-334 -213zM274 1274l334 213l37 -55l-334 -213z" />
<glyph unicode="&#x30c;" horiz-adv-x="438" d="M-35 1499h86l193 -203l190 203h86l-250 -270h-57z" />
<glyph unicode="&#x312;" horiz-adv-x="346" d="M86 1214l94 388h58l-78 -388h-74z" />
<glyph unicode="&#x315;" horiz-adv-x="274" d="M102 989v445h70v-445h-70z" />
<glyph unicode="&#x326;" horiz-adv-x="346" d="M86 -547l78 387h74l-95 -387h-57z" />
<glyph unicode="&#x327;" horiz-adv-x="804" d="M350 -403l4 57q80 -8 160 -8q98 0 98 94q0 86 -98 86h-111v176h68v-119q115 0 164 -30.5t49 -112.5q0 -152 -168 -152z" />
<glyph unicode="&#x328;" horiz-adv-x="886" d="M344 -242q0 40 43 105q45 68 84 106l43 43l72 -10q-166 -175 -166 -240q0 -45 26.5 -73.5t69.5 -28.5l115 14l8 -67q-78 -16 -131 -17q-74 0 -119 45t-45 123z" />
<glyph unicode="&#x394;" d="M96 0v53l373 1299h156l372 -1299l2 -53h-903zM178 70h735l-342 1212h-51z" />
<glyph unicode="&#x2206;" d="M96 0v53l373 1299h156l372 -1299l2 -53h-903zM178 70h735l-342 1212h-51z" />
<glyph unicode="&#x3a9;" d="M53 -18v59h309q-10 16 -26 45q-31 55 -60 113q-45 88 -75 166q-31 76 -60 190q-27 106 -26 203q0 324 88 469t340 145q254 0 340 -147.5t86 -466.5q0 -145 -62 -324q-59 -172 -125 -287l-61 -106h311v-59h-387v38q18 31 27 48l59 118q37 76 76 172q29 70 59 191 q27 104 27 188q0 304 -68 430q-68 127 -282 127q-92 0 -155.5 -24.5t-100.5 -63.5q-39 -41 -60 -114q-20 -70 -26 -154q-8 -106 -8 -201q0 -133 61 -311q63 -186 125 -293l61 -113v-38h-387z" />
<glyph unicode="&#x2126;" d="M53 -18v59h309q-10 16 -26 45q-31 55 -60 113q-45 88 -75 166q-31 76 -60 190q-27 106 -26 203q0 324 88 469t340 145q254 0 340 -147.5t86 -466.5q0 -145 -62 -324q-59 -172 -125 -287l-61 -106h311v-59h-387v38q18 31 27 48l59 118q37 76 76 172q29 70 59 191 q27 104 27 188q0 304 -68 430q-68 127 -282 127q-92 0 -155.5 -24.5t-100.5 -63.5q-39 -41 -60 -114q-20 -70 -26 -154q-8 -106 -8 -201q0 -133 61 -311q63 -186 125 -293l61 -113v-38h-387z" />
<glyph unicode="&#x3c0;" d="M8 926v71q66 12 127 17q29 2 129 8l51 2h443q197 0 295 33v-72q-72 -25 -213 -31v-639q0 -154 41 -200q39 -45 161 -45v-70q-160 0 -217 63.5t-57 251.5v637h-418l-59 -952h-72l60 952q-187 -1 -271 -26z" />
<glyph unicode="&#x1e80;" horiz-adv-x="1783" d="M92 1434h72l293 -1364h78l317 1343h82l328 -1343h77l283 1364h72l-295 -1434h-197l-309 1317l-299 -1317h-197zM659 1825l33 63l393 -196l-30 -56z" />
<glyph unicode="&#x1e81;" horiz-adv-x="1556" d="M78 1024h76l260 -958h22l303 938h80l301 -938h23l262 958h76l-281 -1024h-139l-283 918l-284 -918h-140zM565 1436l33 63l393 -196l-30 -56z" />
<glyph unicode="&#x1e82;" horiz-adv-x="1783" d="M92 1434h72l293 -1364h78l317 1343h82l328 -1343h77l283 1364h72l-295 -1434h-197l-309 1317l-299 -1317h-197zM700 1692l394 196l32 -63l-395 -189z" />
<glyph unicode="&#x1e83;" horiz-adv-x="1556" d="M78 1024h76l260 -958h22l303 938h80l301 -938h23l262 958h76l-281 -1024h-139l-283 918l-284 -918h-140zM565 1303l393 196l33 -63l-395 -189z" />
<glyph unicode="&#x1e84;" horiz-adv-x="1783" d="M92 1434h72l293 -1364h78l317 1343h82l328 -1343h77l283 1364h72l-295 -1434h-197l-309 1317l-299 -1317h-197zM655 1716v127h72v-127h-72zM1057 1716v127h71v-127h-71z" />
<glyph unicode="&#x1e85;" horiz-adv-x="1556" d="M78 1024h76l260 -958h22l303 938h80l301 -938h23l262 958h76l-281 -1024h-139l-283 918l-284 -918h-140zM549 1307v127h72v-127h-72zM938 1307v127h72v-127h-72z" />
<glyph unicode="&#x1eab;" horiz-adv-x="1095" d="M113 281q0 133 67.5 206.5t214.5 87.5l389 41v107q0 129 -57 190q-55 59 -170 60q-55 0 -164 -10q-131 -12 -160 -17l-63 -8l-6 68q230 37 393 36q299 0 299 -319v-588q10 -74 154 -86l-4 -65q-154 0 -211 82q-193 -84 -422 -84q-123 0 -191 77q-69 81 -69 222zM166 1573 q102 96 168 96q49 0 158 -53q115 -55 143 -55q37 0 127 84l18 -62q-86 -88 -149 -88q-45 0 -158 55.5t-143 55.5q-43 0 -144 -93zM188 281q0 -111 49.5 -172.5t137.5 -61.5q96 0 192 21q115 25 160 41l57 20v420l-381 -37q-215 -20 -215 -231zM221 1167l248 271h57l250 -271 h-88l-188 205l-191 -205h-88z" />
<glyph unicode="&#x1eb0;" horiz-adv-x="1234" d="M72 0l440 1434h217l436 -1430h-73l-138 436h-671l-138 -440h-73zM283 2111l32 64l394 -197l-31 -55zM303 510h631l-260 854h-111zM328 1831h71q0 -80 61.5 -129t149.5 -49t149.5 49t61.5 129h72q0 -111 -82 -178q-80 -66 -201 -66t-200 66q-82 67 -82 178z" />
<glyph unicode="&#x1ec5;" horiz-adv-x="1036" d="M123 512q0 530 414 530q195 0 292 -116q96 -115 97 -375v-68h-727q0 -223 69.5 -329.5t241.5 -106.5q141 0 373 19l4 -66q-231 -18 -379 -18q-217 2 -301 133t-84 397zM199 549h651q0 229 -76 330q-74 98 -237 98q-338 0 -338 -428zM209 1573q102 96 168 96q47 0 155 -53 q115 -55 146 -55q37 0 127 84l18 -62q-86 -88 -149 -88q-43 0 -158 55.5t-143 55.5q-41 0 -144 -93zM246 1167l248 271h57l250 -271h-88l-189 205l-190 -205h-88z" />
<glyph unicode="&#x1ed7;" horiz-adv-x="1095" d="M123 535q0 283 96 395t324 112q211 0 311 -118.5t100 -393.5q0 -299 -84 -423.5t-327 -124.5q-248 0 -334 118q-86 122 -86 435zM186 1573q102 96 168 96q49 0 158 -53q115 -55 143 -55q37 0 127 84l19 -62q-86 -88 -150 -88q-45 0 -157.5 55.5t-143.5 55.5 q-43 0 -143 -93zM199 535q0 -141 12 -226q14 -90 47 -149q37 -63 104.5 -88t180.5 -25q115 0 180 27q68 29 102.5 96.5t42.5 144.5q10 88 11 215q0 243 -80 344q-80 102 -256 103q-197 0 -270.5 -92t-73.5 -350zM242 1167l247 271h58l250 -271h-88l-189 205l-190 -205h-88z " />
<glyph unicode="&#x1ef2;" horiz-adv-x="1103" d="M51 1434h84l420 -736l414 736h86l-463 -818v-616h-74v616zM340 1825l33 63l393 -196l-31 -56z" />
<glyph unicode="&#x1ef3;" horiz-adv-x="980" d="M72 1024h75l302 -958h83l304 958h75l-469 -1495h-75l147 471h-125zM276 1436l33 63l393 -196l-30 -56z" />
<glyph unicode="&#x1ef8;" horiz-adv-x="1103" d="M51 1434h84l420 -736l414 736h86l-463 -818v-616h-74v616zM233 1778q102 96 168 96q41 0 156 -55q109 -53 145.5 -53.5t126.5 83.5l19 -61q-86 -88 -150 -88q-43 0 -157.5 55t-143.5 55q-41 0 -143 -92z" />
<glyph unicode="&#x1ef9;" horiz-adv-x="980" d="M72 1024h75l302 -958h83l304 958h75l-469 -1495h-75l147 471h-125zM170 1368q102 96 168 96q43 0 156 -55q109 -53 145.5 -53t126.5 84l18 -62q-86 -88 -149 -88q-41 0 -155.5 55.5t-145.5 55.5q-43 0 -144 -92z" />
<glyph unicode="&#x2000;" horiz-adv-x="1085" />
<glyph unicode="&#x2001;" horiz-adv-x="2174" />
<glyph unicode="&#x2002;" horiz-adv-x="1085" />
<glyph unicode="&#x2003;" horiz-adv-x="2174" />
<glyph unicode="&#x2004;" horiz-adv-x="724" />
<glyph unicode="&#x2005;" horiz-adv-x="542" />
<glyph unicode="&#x2006;" horiz-adv-x="360" />
<glyph unicode="&#x2007;" horiz-adv-x="360" />
<glyph unicode="&#x2008;" horiz-adv-x="270" />
<glyph unicode="&#x2009;" horiz-adv-x="434" />
<glyph unicode="&#x200a;" horiz-adv-x="118" />
<glyph unicode="&#x2010;" horiz-adv-x="899" d="M123 541v69h655v-69h-655z" />
<glyph unicode="&#x2011;" horiz-adv-x="899" d="M123 541v69h655v-69h-655z" />
<glyph unicode="&#x2012;" horiz-adv-x="899" d="M123 541v69h655v-69h-655z" />
<glyph unicode="&#x2013;" horiz-adv-x="1024" d="M0 516v70h1024v-70h-1024z" />
<glyph unicode="&#x2014;" horiz-adv-x="2048" d="M0 516v70h2048v-70h-2048z" />
<glyph unicode="&#x2018;" horiz-adv-x="346" d="M74 1079l100 410h59l-81 -410h-78z" />
<glyph unicode="&#x2019;" horiz-adv-x="346" d="M113 1079l82 410h77l-100 -410h-59z" />
<glyph unicode="&#x201a;" horiz-adv-x="346" d="M92 -174l101 410h59l-82 -410h-78z" />
<glyph unicode="&#x201c;" horiz-adv-x="573" d="M31 1079l100 410h59l-81 -410h-78zM303 1079l100 410h60l-82 -410h-78z" />
<glyph unicode="&#x201d;" horiz-adv-x="595" d="M113 1079l82 410h77l-100 -410h-59zM408 1079l81 410h78l-100 -410h-59z" />
<glyph unicode="&#x201e;" horiz-adv-x="612" d="M92 -174l101 410h59l-82 -410h-78zM399 -174l101 410h59l-82 -410h-78z" />
<glyph unicode="&#x2020;" d="M131 950v70h375v414h72v-414h374v-70h-374v-1112h-72v1112h-375z" />
<glyph unicode="&#x2021;" d="M131 252v65h375v633h-375v70h375v414h72v-414h374v-70h-374v-633h374v-65h-374v-414h-72v414h-375z" />
<glyph unicode="&#x2022;" d="M287 225v594h512v-594h-512z" />
<glyph unicode="&#x2026;" horiz-adv-x="1521" d="M219 0v164h82v-164h-82zM739 0v164h82v-164h-82zM1260 0v164h81v-164h-81z" />
<glyph unicode="&#x202f;" horiz-adv-x="434" />
<glyph unicode="&#x2030;" horiz-adv-x="1703" d="M57 1163q0 272 211 272.5t211 -274.5q0 -141 -57 -211q-59 -72 -154 -71q-100 0 -155 71q-56 70 -56 213zM129 1163q0 -219 139.5 -219t139.5 217q0 104 -31 158q-31 51 -109 51q-74 0 -106.5 -51.5t-32.5 -155.5zM338 16l377 1420l67 -17l-379 -1417zM629 285 q0 272 211 272t211 -274q0 -141 -58 -211q-59 -72 -153 -72q-98 0 -154 72q-57 74 -57 213zM700 285q0 -219 139.5 -219t139.5 217q0 102 -33 157q-31 51 -106 52q-74 0 -107 -51.5t-33 -155.5zM1157 285q0 272 211 272t211 -274q0 -141 -57 -211q-59 -72 -154 -72 q-98 0 -154 72q-57 74 -57 213zM1229 285q0 -219 139 -219t139 217q0 102 -32 157q-31 51 -107 52q-74 0 -106.5 -51.5t-32.5 -155.5z" />
<glyph unicode="&#x2039;" horiz-adv-x="512" d="M47 479v74l342 264v-80l-276 -217l276 -239v-84z" />
<glyph unicode="&#x203a;" horiz-adv-x="512" d="M123 197v84l276 239l-276 217v80l342 -264v-74z" />
<glyph unicode="&#x205f;" horiz-adv-x="542" />
<glyph unicode="&#x2070;" horiz-adv-x="540" d="M45 1303q0 334 229 333q113 0 172.5 -77.5t59.5 -258.5q0 -340 -230 -339q-231 0 -231 342zM121 1300q0 -150 39 -208q40 -61 116 -62q78 0 115 62q39 66 39 211q0 135 -37 200q-37 63 -119 64q-80 0 -116 -64q-37 -66 -37 -203z" />
<glyph unicode="&#x2074;" horiz-adv-x="540" d="M37 1096v65l182 457h78l-178 -453h217v178h74v-178h75v-69h-75v-117h-74v117h-299z" />
<glyph unicode="&#x2075;" horiz-adv-x="540" d="M78 985l6 72q108 -25 197 -25q55 0 92 37q35 35 35 111q0 131 -117 131q-80 0 -144 -45l-63 4l18 348h357v-72h-287l-14 -209q45 45 133 45q86 0 141 -49t55 -153q0 -106 -59 -162q-61 -57 -147 -57q-41 0 -91 6q-55 6 -81 12z" />
<glyph unicode="&#x2076;" horiz-adv-x="540" d="M55 1300q0 181 62 259q61 78 180 77q76 0 164 -18l-4 -66q-78 14 -160 15q-80 0 -121 -49q-37 -47 -41 -164l23 10q20 8 59 18q41 10 68 11q209 0 209 -207q0 -104 -58 -164q-59 -61 -157 -61q-224 -1 -224 339zM133 1278q4 -129 35 -186q34 -61 111 -62q137 0 137 156 q0 78 -29 106q-31 31 -104 31q-35 0 -72 -12q-43 -14 -57 -21q-21 -8 -21 -12z" />
<glyph unicode="&#x2077;" horiz-adv-x="540" d="M61 1548v70h398v-125l-230 -530l-73 16l225 518v51h-320z" />
<glyph unicode="&#x2078;" horiz-adv-x="540" d="M39 1141q0 78 29 112q27 33 96 62q-57 20 -88 57q-27 33 -27 96q0 168 221.5 168t221.5 -168q0 -70 -23 -100.5t-90 -52.5q63 -18 92 -53q31 -37 31 -109q0 -109 -60 -149q-61 -43 -172 -43q-231 0 -231 180zM117 1143q0 -113 153.5 -113t153.5 121q0 59 -24.5 84 t-92.5 41h-74q-61 -14 -90 -43q-26 -27 -26 -90zM127 1468q0 -49 23 -75q18 -20 83 -41h74q63 16 84 39q23 27 23 75q0 51 -33 76q-34 25 -111 25q-143 -1 -143 -99z" />
<glyph unicode="&#x2079;" horiz-adv-x="540" d="M47 1421q0 98 62 158q59 57 157 57q223 0 223 -344q0 -182 -59 -258q-57 -74 -186 -73q-80 0 -168 20l6 63q80 -14 162 -14q170 0 172 211q-92 -35 -162 -35q-94 0 -150 58q-57 61 -57 157zM125 1423q0 -66 35 -106.5t96 -40.5q68 0 160 43q-4 125 -37 186 q-35 61 -113 62q-68 0 -104.5 -37t-36.5 -107z" />
<glyph unicode="&#x2080;" horiz-adv-x="540" d="M45 324q0 334 229 333q113 0 172.5 -77.5t59.5 -257.5q0 -340 -230 -340q-231 0 -231 342zM121 322q0 -143 39 -207t116.5 -64t114.5 62q39 66 39 211q0 135 -37 200q-37 63 -119 64q-80 0 -116 -64q-37 -64 -37 -202z" />
<glyph unicode="&#x2081;" horiz-adv-x="540" d="M80 502l203 137h73v-639h-73v559l-168 -115z" />
<glyph unicode="&#x2082;" horiz-adv-x="540" d="M57 0v70l201 213q51 55 57 63q18 25 37 62q16 33 17 77q0 102 -117 103q-72 0 -184 -25l-5 68q100 27 191 26q188 0 188 -174q0 -61 -32.5 -120.5t-100.5 -126.5l-155 -166h303v-70h-400z" />
<glyph unicode="&#x2083;" horiz-adv-x="540" d="M59 4l7 66q111 -18 213 -19q129 0 129 119q0 125 -123 125h-133v70h133q39 0 71.5 38.5t32.5 90.5q0 47 -27 71q-25 23 -92 23q-57 0 -90 -4q-72 -8 -78 -11l-28 -4l-6 66q113 23 200 22q100 0 148 -39q49 -41 49 -124q0 -52 -25 -93t-41 -51q-12 -8 -32 -16 q59 -18 88 -49q29 -33 28 -113q0 -190 -204 -190q-95 -1 -220 22z" />
<glyph unicode="&#x2084;" horiz-adv-x="540" d="M37 117v65l182 457h78l-178 -453h217v179h74v-179h75v-69h-75v-117h-74v117h-299z" />
<glyph unicode="&#x2085;" horiz-adv-x="540" d="M78 6l6 72q108 -25 197 -25q55 0 92 37q35 35 35 111q0 131 -117 131q-80 0 -144 -45l-63 4l18 348h357v-72h-287l-14 -209q45 45 133 45q86 0 141 -49t55 -153q0 -106 -59 -162q-61 -57 -147 -57q-41 0 -91 6q-55 6 -81 12z" />
<glyph unicode="&#x2086;" horiz-adv-x="540" d="M55 322q0 181 62 258q61 78 180 77q76 0 164 -18l-4 -66q-78 14 -160 15q-80 0 -121 -49q-37 -47 -41 -164l23 10q20 8 59 18q41 10 68 11q209 0 209 -207q0 -104 -58 -164q-59 -61 -157 -61q-224 0 -224 340zM133 299q4 -129 35 -186q34 -61 111 -62q137 0 137 156 q0 78 -29 106q-31 31 -104 31q-41 0 -72 -10q-23 -6 -57 -23q-21 -8 -21 -12z" />
<glyph unicode="&#x2087;" horiz-adv-x="540" d="M61 569v70h398v-125l-230 -530l-73 16l225 518v51h-320z" />
<glyph unicode="&#x2088;" horiz-adv-x="540" d="M39 162q0 78 29 112q27 33 96 62q-57 20 -88 57q-27 33 -27 96q0 168 221.5 168t221.5 -168q0 -70 -23 -100.5t-90 -52.5q63 -18 92 -53q31 -37 31 -109q0 -109 -60 -149q-61 -43 -172 -43q-231 0 -231 180zM117 164q0 -113 153.5 -113t153.5 121q0 59 -24.5 84t-92.5 41 h-74q-61 -14 -90 -43q-26 -27 -26 -90zM127 489q0 -49 23 -75q18 -20 83 -41h74q63 16 84 39q23 27 23 75q0 51 -33 76q-34 25 -111 25q-143 -1 -143 -99z" />
<glyph unicode="&#x2089;" horiz-adv-x="540" d="M47 442q0 98 62 158q59 57 157 57q223 0 223 -344q0 -182 -59 -258q-57 -74 -186 -73q-80 0 -168 20l6 64q80 -14 162 -15q170 0 172 211q-92 -35 -162 -35q-94 0 -150 58q-57 61 -57 157zM125 444q0 -66 35 -106.5t96 -40.5q68 0 160 43q-4 125 -37 186q-35 61 -113 62 q-68 0 -104.5 -37t-36.5 -107z" />
<glyph unicode="&#x20ac;" d="M10 502v69h127q-2 23 -2 107q0 100 2 127h-127v69h131q23 262 131 388q111 125 373 124q182 0 359 -38l-7 -72q-193 41 -352 41q-225 0 -317 -107q-90 -104 -109 -336l637 -2v-67h-641q-2 -27 -2 -127q0 -84 2 -107l641 -2v-67h-639q16 -238 107 -344q92 -106 321 -107 q141 0 352 41l7 -69q-201 -41 -359 -41q-262 0 -373 124q-113 129 -131 396h-131z" />
<glyph unicode="&#x2122;" d="M14 1208v64h410v-64h-170v-528h-68v528h-172zM496 678v594h102l172 -496l178 496h103v-594h-66v528l-180 -506h-72l-172 506v-528h-65z" />
<glyph unicode="&#x2211;" horiz-adv-x="1703" />
<glyph unicode="&#x2212;" d="M43 610v70h995v-70h-995z" />
<glyph unicode="&#x221e;" d="M35 598q0 164 59 258q57 92 174 92q102 0 164 -65q63 -66 111 -195q47 127 108 195q59 66 166 65q117 0 176 -92q57 -90 58 -258q0 -350 -238 -350q-102 0 -162 65q-61 68 -108 193q-53 -156 -104.5 -207t-166.5 -51q-237 0 -237 350zM113 598q0 -279 157 -279 q37 0 68 13q27 10 51 30q16 14 39 50q22 34 31 55l28 68l25 63l-25 64l-28 67q-9 22 -31 55q-23 35 -39 50q-25 20 -51 30q-31 12 -68 13q-157 0 -157 -279zM573 598l25 -63q4 -10 29 -68q9 -22 30 -55q20 -33 41 -50q25 -20 50 -30q31 -12 67 -13q158 0 158 279t-158 279 q-37 0 -67 -13q-25 -10 -50 -30q-20 -16 -41 -50q-22 -34 -30 -55q-25 -57 -29 -67z" />
<glyph unicode="&#x2248;" d="M137 403q114 111 209 111q68 0 209 -55.5t182 -55.5q33 0 80 27q37 20 80 55l33 27l14 -76q-109 -106 -205 -106q-68 0 -207 55t-186 55q-31 0 -82 -28q-61 -35 -82 -54l-30 -26zM139 752q114 111 209 110q68 0 209 -55t182 -55q29 0 80 28q55 31 80 54l33 26l14 -76 q-109 -106 -205 -106q-70 0 -207 55t-186 55q-31 0 -82 -28.5t-82 -52.5l-30 -27z" />
<glyph unicode="&#x2260;" d="M125 696v70h506l147 334l72 -29l-135 -305h280v-70h-311l-135 -309h448v-70h-479l-147 -337l-72 28l135 309h-307v70h338l135 309h-475z" />
<glyph unicode="&#x2264;" d="M186 135v74h670v-74h-670zM186 705v73l670 346v-80l-604 -299l604 -321v-84z" />
<glyph unicode="&#x2265;" d="M229 135v74h670v-74h-670zM229 340v84l605 321l-605 299v80l670 -346v-73z" />
<glyph unicode="&#xe000;" horiz-adv-x="1025" d="M0 1025h1025v-1025h-1025v1025z" />
<glyph horiz-adv-x="479" />
<glyph horiz-adv-x="1099" d="M207 0v1495h72v-534q174 82 352 81q203 0 276 -116q72 -113 72 -391q0 -299 -96.5 -426t-370.5 -127q-139 0 -305 18zM279 59q160 -12 231 -12q129 0 207 26.5t119 94.5q43 72 55 147q12 83 12 215q0 246 -53 344q-55 102 -219 103q-86 0 -170 -21q-98 -25 -135 -41 l-47 -20v-836z" />
<glyph horiz-adv-x="1282" d="M211 0v1434h491q209 0 311.5 -84t102.5 -265q0 -272 -198 -346q254 -70 253 -338q0 -221 -110 -311q-113 -90 -320 -90h-530zM285 70h456q168 0 263 75q92 74 92 256q0 297 -371 297h-440v-628zM285 766h440q163 0 240 80q76 78 75 239q0 150 -82 213q-84 66 -256 66 h-417v-598z" />
<glyph horiz-adv-x="980" d="M72 1024h75l299 -958h89l301 958h75l-321 -1024h-201z" />
<glyph horiz-adv-x="931" d="M78 0l346 512l-346 512h82l307 -457l307 457h82l-346 -512l346 -512h-84l-305 457l-305 -457h-84z" />
<glyph d="M94 690q0 371 129 526.5t375 155.5q174 0 328 -39l-8 -67q-147 37 -320 37q-209 0 -317 -136q-109 -137 -109 -446q0 4 57 31q68 31 156 59q92 29 178 29q428 0 428 -414q0 -444 -438 -444q-238 0 -348.5 178t-110.5 530zM170 649q2 -295 94 -448q88 -150 289 -150 q197 0 278 92q82 90 82 283q0 168 -79.5 256t-274.5 88q-174 -6 -385 -119z" />
<glyph d="M96 928q0 213 113 327q115 117 334 117q231 0 340 -178q109 -180 108 -530q0 -369 -123 -527q-123 -156 -364 -155q-74 0 -164 12q-106 14 -137 20l-51 11l12 65q164 -39 340 -39q207 0 309 139.5t102 452.5q0 -4 -57 -31q-53 -25 -156 -57q-98 -31 -178 -31 q-219 0 -323 109q-105 108 -105 295zM174 928q0 -152 86 -244q84 -90 268 -90q174 6 385 119l5 2q-10 588 -375 588q-369 0 -369 -375z" />
<glyph horiz-adv-x="1335" d="M211 0v1434h586q119 0 209 -72q86 -70 131 -186q39 -102 59 -224q18 -108 18 -215q0 -53 -8 -159q-4 -63 -32 -189q-27 -115 -66 -192q-41 -78 -125 -140q-78 -57 -186 -57h-586zM285 70h512q92 0 157 57q72 61 103 133q35 82 53 180q20 113 23 170q4 86 4 127 q0 74 -15 160q-18 106 -47 205q-35 115 -106 186q-76 76 -172 76h-512v-1294z" />
<glyph d="M211 0v1434h74v-1364h698v-70h-772z" />
<glyph horiz-adv-x="0" />
<glyph d="M59 1165q0 143 52 207q53 66 165.5 66t163.5 -64q53 -66 54 -211q0 -283 -218 -282q-111 0 -164 69.5t-53 214.5zM131 1165q0 -113 33 -166t112 -53q82 0 113 53q33 55 33 164q0 106 -33 160q-31 49 -113 49q-78 0 -112 -51q-33 -47 -33 -156zM381 12l295 1424l74 -15 l-295 -1423zM635 285q0 143 51 207q53 66 166 65q111 0 164 -65.5t53 -208.5q0 -283 -217 -283q-111 0 -164 68q-53 70 -53 217zM707 284.5q0 -110.5 32 -163.5q35 -55 113 -55q82 0 113 53q33 55 32 164q0 106 -32 159q-31 49 -113 50q-78 0 -113 -50q-32 -47 -32 -157.5z " />
<glyph d="M279 938l225 164l-223 164l41 55l225 -166l86 264l65 -20l-86 -266h277v-70h-281l86 -264l-65 -21l-86 266l-226 -161z" />
<glyph horiz-adv-x="530" d="M10 616q0 172 51 412q47 223 99 369l49 139h72q-27 -72 -54 -158q-29 -92 -86 -346q-55 -246 -55 -416q0 -341 178 -829l17 -43h-72l-55 139q-31 82 -88 320q-56 231 -56 413z" />
<glyph horiz-adv-x="530" d="M-8 -246q39 109 55 158q23 76 84 344q55 246 55 418q0 341 -178 829l-16 43h71l56 -139q31 -82 88 -320q55 -231 55 -413q0 -181 -49 -411.5t-98 -368.5l-52 -140h-71z" />
<glyph horiz-adv-x="581" d="M0 602v66q117 28 166 86q47 55 47 159q0 27 -6 125q-8 131 -8 138q0 182 84 270q80 82 276 92l4 -65q-172 -10 -231 -78q-61 -72 -62 -219q0 -37 6 -125l9 -119q0 -135 -45 -195q-47 -63 -160 -100q115 -37 160 -100.5t45 -190.5l-15 -237q0 -145 62 -218q61 -70 231 -79 l-4 -66q-199 10 -278 92q-82 84 -82 271q0 14 8 137q6 92 6 114q0 100 -47 153.5t-166 88.5z" />
<glyph horiz-adv-x="1931" d="M123 711q0 379 119 559q121 182 430 182q221 0 301 -18h837v-74h-763v-586h641v-74h-641v-626h763v-74h-833v-2q-76 -16 -305 -16q-168 0 -273 45q-106 45 -168 143q-59 96 -84 223q-24 130 -24 318zM201 711q0 -174 18 -287q18 -109 70 -203q49 -90 143 -129 q98 -41 240 -41q218 0 301 19v1288q-80 25 -301 24q-143 0 -237.5 -43t-143.5 -135q-53 -100 -70 -205q-20 -128 -20 -288zM973 1358l2 -680v680h-2z" />
<glyph horiz-adv-x="1703" d="M469 434v66h379v477h-379v65h379v392h72v-392h378v-65h-378v-477h378v-66h-378v-434h-72v434h-379z" />
<glyph horiz-adv-x="788" d="M10 1397q231 55 340 55q201 0 307 -76q102 -72 103 -248q0 -98 -41 -174q-43 -80 -103 -139q-59 -57 -120 -110q-55 -47 -103 -115q-41 -59 -41 -123v-78h-71v84q0 70 43 137.5t102 120.5l119 113q57 57 100 131t43 153q0 139 -84 199q-82 57 -254 57q-100 0 -330 -57z M276 2v164h82v-164h-82z" />
<glyph horiz-adv-x="286" d="M51 0v164h82v-164h-82zM51 705v163h82v-163h-82z" />
<glyph horiz-adv-x="346" d="M-12 -252l84 430h86l-107 -430h-63zM66 705v163h81v-163h-81z" />
<glyph horiz-adv-x="612" d="M98 1534h375v-66h-301v-1654h301v-66h-373z" />
<glyph horiz-adv-x="612" d="M104 -186h302v1654h-302v66h375l-2 -1786h-373v66z" />
<glyph horiz-adv-x="202" d="M-41 1413h244l-10 -471h-230z" />
<glyph horiz-adv-x="724" d="M68 1413h243l-10 -471h-229zM391 1413h244l-10 -471h-230z" />
<glyph horiz-adv-x="1431" d="M78 426q0 180 78 270q76 88 256 142q-70 76 -86 133q-18 61 -19 155q0 133 80 213q82 82 234 82q162 0 237 -80q76 -78 76 -217q0 -145 -78 -229t-260 -143l383 -379q43 131 63 299h72q-27 -219 -80 -353l287 -280l-49 -53l-268 266q-135 -270 -455 -270 q-258 0 -364.5 112.5t-106.5 331.5zM150 428q0 -190 94 -284.5t309 -94.5q281 0 397 254l-485 481q-175 -46 -246 -122q-69 -76 -69 -234zM379 1126q0 -160 92 -252l74 -73q176 61 248 129q70 68 69 196q0 229 -241.5 229t-241.5 -229z" />
<glyph horiz-adv-x="1165" d="M233 0v70h189v696h-141v65h141v195q0 215 67.5 291t212.5 76q77 0 246 -25v-65q-178 25 -246 24q-109 0 -159 -63q-49 -61 -49 -238v-195h372v-65h-372v-696h356l168 32l14 -65l-166 -35z" />
<glyph horiz-adv-x="1212" d="M139 502v69h127q-2 23 -2 107q0 100 2 127h-127v69h131q23 262 131 388q111 125 373 124q184 0 359 -38l-7 -72q-193 41 -352 41q-225 0 -317 -107q-90 -104 -109 -336l637 -2v-67h-641q-2 -27 -2 -127q0 -84 2 -107l641 -2v-67h-639q16 -238 107 -344q92 -106 321 -107 q141 0 352 41l7 -69q-201 -41 -359 -41q-262 0 -373 124q-113 129 -131 396h-131z" />
<glyph horiz-adv-x="1703" d="M504 1407l71 29l617 -1407l-72 -29z" />
<glyph horiz-adv-x="1062" d="M55 -70h877v-69h-877v69z" />
<glyph horiz-adv-x="1257" d="M211 0v1434h522q213 0 320 -103q104 -102 104 -329.5t-96 -352.5q-94 -123 -328 -123h-448v-526h-74zM285 596h448q346 0 346 405q0 188 -86 275q-88 88 -260 88h-448v-768z" />
<glyph d="M6 684v74h688v-74h-688zM309 285v164h82v-164h-82zM309 989v164h82v-164h-82z" />
<glyph horiz-adv-x="837" d="M-100 479v70h475v475h74v-475h479v-70h-479v-479h-74v479h-475z" />
<glyph horiz-adv-x="899" d="M123 541v69h655v-69h-655z" />
<glyph d="M129 602v74l711 469v-80l-645 -422l645 -444v-84q-633 430 -711 487z" />
<glyph d="M2 702v70h1034v-70h-1034zM4 356v70h1034v-70h-1034z" />
<glyph d="M129 115v84l645 444l-645 422v80l711 -469v-74z" />
<glyph d="M94 25l568 1413l67 -29l-567 -1411z" />
<glyph horiz-adv-x="1792" d="M123 535q0 287 94 395q96 113 326 112q301 0 377 -245q88 246 372 245q193 0 291 -116.5t98 -374.5v-68h-727q0 -223 70 -329.5t242 -106.5q143 0 372 19l4 -66q-229 -18 -378 -18q-270 4 -346 219q-37 -115 -125 -166q-90 -53 -250 -53q-248 0 -334 118q-86 122 -86 435 zM199 535q0 -141 12 -226q14 -90 47 -149q37 -63 104.5 -88t180.5 -25q115 0 180 27q68 29 102.5 96.5t42.5 144.5q10 88 11 215q0 243 -80 344q-80 102 -256 103q-197 0 -270.5 -92t-73.5 -350zM954 549h652q0 231 -74 329.5t-240 98.5q-338 0 -338 -428z" />
<glyph horiz-adv-x="1837" d="M72 0l514 1434h1130v-70h-764v-590h641v-69h-641v-635h764v-70h-837v440h-566l-159 -440h-82zM338 510h541v854h-236z" />
<glyph horiz-adv-x="1341" d="M94 711q0 379 119 559q121 182 430 182q170 0 287 -57l106 227l68 -29l-113 -237q109 -84 156 -244q45 -154 45 -401q0 -393 -115 -559q-117 -170 -434 -170q-162 0 -274 47l-119 -256l-68 26l123 264q-117 78 -164 236q-47 160 -47 412zM172 711q0 -230 37 -369 q39 -143 129 -211l559 1196q-98 55 -254 55q-143 0 -237 -43q-96 -43 -146 -135q-49 -94 -67 -205q-21 -128 -21 -288zM399 94q98 -43 244 -43q150 0 242 37q90 37 141 125q51 90 70 203q18 114 18 295q0 430 -156 573z" />
<glyph horiz-adv-x="1693" d="M113 281q0 143 63.5 206.5t218.5 87.5l389 41v107q0 250 -227 250q-152 0 -385 -19l-4 68q213 20 389 20q236 0 285 -196q100 197 352 196q195 0 293 -116q96 -115 96 -375v-68h-727q0 -223 69.5 -329.5t241.5 -106.5q143 0 373 19l4 -66q-229 -18 -379 -18 q-205 4 -293 118l-77 -32q-190 -86 -422 -86q-260 0 -260 299zM188 280.5q0 -112.5 50 -174.5q47 -59 137 -59q84 0 198 25q119 27 175 45q76 27 94 35q-61 119 -62 360v37l-377 -37q-111 -8 -163 -66q-52 -53 -52 -165.5zM856 549h651q0 229 -75 330q-74 98 -238 98 q-338 0 -338 -428z" />
<glyph d="M123 498q0 295 108.5 419.5t305.5 124.5q215 0 317 -118q100 -115 100 -430q0 -276 -108 -396q-109 -117 -307 -116q-416 0 -416 516zM195 500q0 -252 90 -352.5t256 -100.5q172 0 258 98q84 96 84 351q0 279 -84 381q-82 100 -260 100q-82 0 -138 -21q-61 -23 -108 -69 q-49 -49 -73.5 -147.5t-24.5 -239.5z" />
<glyph d="M217 801l354 223h72v-1024h-72v946l-319 -203z" />
<glyph d="M207 0v66l411 358q102 90 154 168q49 74 49 166q0 117 -63.5 168t-206.5 51q-45 0 -137 -10q-39 -4 -142 -21l-59 -10l-6 63q199 43 346 43q340 0 340 -284q0 -115 -49 -193q-47 -74 -156 -166l-399 -333h637v-66h-719z" />
<glyph d="M215 18l10 66q205 -37 371 -37q295 2 295 229q0 217 -283 236h-250v66h248q102 6 180 57q74 49 74 153.5t-67.5 147.5t-208.5 43q-80 0 -156 -8q-53 -6 -137 -21l-53 -8l-9 66q197 37 353 36q172 0 262 -61q88 -61 88 -197q0 -59 -21 -100q-23 -47 -47 -68 q-35 -31 -59 -43q-33 -16 -51.5 -22t-20.5 -6q84 -25 115 -41q43 -22 80 -80q35 -55 35 -145q0 -150 -95 -224q-98 -76 -272 -75q-63 0 -170 10q-129 12 -154 16z" />
<glyph d="M111 207v63l360 754h74l-355 -752h517v301h71v-301h125v-65h-125v-275h-71v275h-596z" />
<glyph d="M227 18l9 66q233 -37 376 -37q129 0 205 72q74 70 74 217q0 240 -277 239q-141 0 -335 -88l-50 13l33 526h660v-65h-596l-29 -402q170 82 319 82q346 0 347 -305q0 -176 -95 -264q-96 -90 -256 -90q-154 -1 -385 36z" />
<glyph d="M180 520q0 285 103 402q104 121 303 120q31 0 129 -8q82 -6 116 -14l43 -8l-6 -64q-156 29 -282 29q-164 0 -250 -98.5t-86 -327.5q0 4 51 24q52 22 135 43q86 23 146 23q350 0 350 -319q0 -168 -96 -254q-98 -88 -283 -88q-373 -1 -373 540zM250 485q6 -442 303 -442 q307 0 307 279q0 131 -63.5 192t-218.5 61q-61 -2 -146 -24q-86 -23 -133 -43z" />
<glyph d="M121 961v65h670v-108l-461 -936l-66 20l455 922v37h-598z" />
<glyph d="M137 258q0 70 15 113q16 51 47 78q33 29 65 49q33 18 88 41q-100 35 -147 90q-51 61 -51 157q0 133 96 195q94 61 280 61q387 0 388 -258q0 -100 -54 -157q-55 -57 -164 -88q117 -35 172 -90q59 -59 60 -177q0 -166 -100.5 -229t-301.5 -63q-193 0 -293 63t-100 215z M209 258q0 -123 82 -168t239 -45q164 0 248 47q82 45 82 180q0 57 -16 103q-14 39 -53 65q-39 25 -70 37q-23 8 -96 27h-203q-111 -29 -162 -80t-51 -166zM225 784q0 -94 45 -139t152 -76h203q117 29 168 74q53 47 53 139q0 111 -78 152q-80 43 -238 43q-162 0 -231 -41 q-74 -43 -74 -152z" />
<glyph d="M150 705q0 160 98 249q100 90 272 90q389 0 389 -530q0 -287 -106 -408q-109 -125 -307 -124q-66 0 -134 8q-23 2 -65.5 7l-58.5 7l-48 8l5 66q169 -31 301 -31q166 0 252 98.5t86 333.5q0 -4 -52 -24q-55 -23 -133 -43q-86 -23 -143 -23q-174 0 -264 82q-92 83 -92 234z M221 705q0 -250 287 -250q61 2 145 24q80 20 131 43l52 23q-2 219 -78 327q-74 106 -238 107q-299 0 -299 -274z" />
<glyph d="M496 -121v1555h71v-1555h-71z" />
<glyph horiz-adv-x="892" d="M25 506q0 399 356 434v270h72v-266l237 -22l-4 -72q-141 16 -233 20v-712l237 16l4 -72q-162 -18 -241 -18v-260h-72v260q-188 10 -272 100.5t-84 321.5zM106 506q0 -195 60 -266q58 -71 215 -80v706q-139 -16 -207 -100q-68 -86 -68 -260z" />
<glyph d="M125 696v70h506l147 334l72 -29l-135 -305h280v-70h-311l-135 -309h448v-70h-479l-147 -337l-72 28l135 309h-307v70h338l135 309h-475z" />
<glyph horiz-adv-x="1103" d="M51 1352h84l420 -633l414 633h86l-391 -604h344v-70h-390l-26 -41v-195h418v-69h-418v-373h-74v373h-420v69h420v195l-26 41h-396v70h350z" />
<glyph d="M184 -512v1536h72v-528q0 -270 49 -359q49 -90 215 -90q174 0 332 100l4 3v874h72v-1024h-72v82l-17.5 -9t-31.5 -18q-27 -16 -121 -45q-92 -29 -166 -28q-194 0 -264 104v-598h-72z" />
<glyph d="M143 -496l4 68q126 -6 185 -6q94 0 141 69.5t47 229.5v856h-141v65h141v228q0 365 260 364l191 -6l-4 -65q-168 4 -187 4q-188 0 -188 -299v-226h332v-65h-332v-856q0 -201 -64 -283q-66 -84 -196 -84z" />
<glyph horiz-adv-x="346" d="M-12 -252l86 430h82l-105 -430h-63z" />
<glyph horiz-adv-x="505" d="M201 0v164h82v-164h-82z" />
<glyph horiz-adv-x="346" d="M8 1079l82 410h78l-98 -410h-62z" />
<glyph horiz-adv-x="1703" d="M240 1073q0 160 110 260q109 100 271 101h712v-68h-198v-1366h-74v1366h-352v-1366h-74v717h-14q-160 0 -270.5 98t-110.5 258z" />
<glyph horiz-adv-x="581" d="M-2 -197q172 10 231 78q61 70 62 219q0 6 -8 125q-6 90 -7 119q0 135 46 195q47 63 159 100q-115 37 -160 100.5t-45 190.5l15 237q0 147 -61.5 217t-231.5 80l4 66q197 -10 277 -92q84 -88 83 -271q0 -14 -8 -137q-6 -92 -6 -115q0 -100 47 -153t166 -88v-66 q-117 -28 -166 -86q-47 -55 -47 -160q0 -27 6 -124q8 -131 8 -138q0 -182 -83 -270q-80 -82 -277 -92z" />
<glyph horiz-adv-x="346" d="M-45 1079l98 410h62l-82 -410h-78z" />
<glyph horiz-adv-x="0" d="M178 344q0 51 10 102q8 41 23 74q12 27 41 60q37 41 43 47q8 8 53 43l53 43l-41 32l-41 33l-32 29q-25 20 -31 35l-20 35q-18 29 -20.5 45t-8.5 51q-6 27 -6 63q0 340 481 340q489 0 489 -342q0 -29 -4 -69q-4 -37 -16 -60q-12 -20 -21 -43q-4 -10 -34 -41l-22 -22 l-11 -13q-18 -18 -45 -38q-41 -33 -47 -35l61 -47q57 -43 66 -54l45 -57q31 -41 39 -82q10 -51 10 -106q0 -213 -133 -304q-131 -88 -377 -88q-504 0 -504 369zM481 418q0 -152 201 -152q207 0 207 152q0 104 -113 155h-180q-66 -31 -90.5 -67.5t-24.5 -87.5zM504 963 q0 -6 1 -14.5t1 -10.5q0 -12 6 -20q2 -4 4 -9.5t2 -7.5l6 -6q6 -4 8 -6q12 -12 16.5 -14.5t22.5 -14.5l25 -16h180q12 8 23 14q6 4 11 9t7 5q2 2 8 6.5t9 6.5q12 8 14 12t8 10t6 15q0 6 4 18q2 6 2 23q0 68 -39 94q-41 29 -143 28q-104 0 -143 -30.5t-39 -91.5z" />
<glyph horiz-adv-x="731" d="M43 774v248h121v266l274 21v-287h252v-248h-252v-387q0 -72 2 -88q2 -23 23 -43q18 -18 61 -18l156 4l12 -236q-138 -31 -209 -31q-184 0 -252 82q-68 83 -67 308v409h-121z" />
<glyph horiz-adv-x="899" d="M123 461v229h655v-229h-655z" />
<glyph horiz-adv-x="505" d="M92 0v291h270v-291h-270z" />
<glyph d="M2 217v270h1036v-270h-1036zM2 641v270h1034v-270h-1034z" />
<glyph horiz-adv-x="1062" d="M55 31h877v-271h-877v271z" />
<glyph horiz-adv-x="692" d="M49 545v188q213 53 213 185q0 27 -6 124q-8 131 -8 138q0 184 90 268q86 80 311 90v-229q-96 -10 -119 -37q-27 -33 -26 -113q0 -8 8 -115q6 -80 6 -108q0 -135 -45 -194.5t-160 -100.5q117 -40 160 -98q45 -61 45 -193q0 -31 -6 -106q-8 -102 -8 -111q0 -84 26 -117 q27 -31 119 -41v-229q-223 8 -311 94q-90 86 -90 273q0 14 8 137q6 92 6 115q0 121 -213 180z" />
<glyph horiz-adv-x="581" d="M-219 -33q96 10 119 37q27 33 26 113q0 8 -8 114q-6 80 -6 109q0 135 45 194.5t160 100.5q-117 40 -160 98q-45 61 -45 193q0 29 6 106q8 102 8 111q0 84 -26 117q-27 31 -119 40v230q223 -8 311 -94q90 -86 90 -273q0 -14 -8 -137q-6 -92 -6 -115q0 -121 213 -180v-188 q-213 -53 -213 -185q0 -27 6 -125q8 -131 8 -137q0 -184 -90 -268q-86 -80 -311 -90v229z" />
<glyph horiz-adv-x="837" d="M-100 389v250h387v385h250v-385h391v-250h-391v-389h-250v389h-387z" />
<glyph horiz-adv-x="540" d="M45 119q0 334 229 334q113 0 172.5 -78t59.5 -258q0 -340 -230 -340q-231 0 -231 342zM121 117q0 -143 39 -207t116.5 -64t114.5 62q39 66 39 211q0 135 -37 200q-37 63 -119 64q-80 0 -116 -64q-37 -64 -37 -202z" />
<glyph horiz-adv-x="540" d="M80 297l203 137h73v-639h-73v559l-168 -114z" />
<glyph horiz-adv-x="540" d="M57 -135l201 213q51 55 57 63q16 20 37 64q16 33 17 76q0 102 -117 102q-72 0 -184 -25l-5 68q100 27 191 27q188 0 188 -174q0 -61 -32.5 -121t-100.5 -127l-155 -166h303v-70h-400v70z" />
<glyph horiz-adv-x="540" d="M59 -201l7 66q111 -18 213 -19q129 0 129 119q0 125 -123 125h-133v70h133q39 0 71.5 39t32.5 90q0 47 -27 71q-25 23 -92 23q-57 0 -90 -4l-41.5 -5t-36.5 -5l-28 -4l-6 65q113 23 200 23q100 0 148 -39q49 -41 49 -125q0 -52 -25 -92q-23 -37 -41 -50q-20 -12 -32 -18 q59 -18 88 -49q29 -33 28 -113q0 -190 -204 -190q-95 -1 -220 22z" />
<glyph horiz-adv-x="540" d="M37 -23l182 457h78l-178 -452h217v178h74v-178h75v-70h-75v-117h-74v117h-299v65z" />
<glyph horiz-adv-x="540" d="M78 -199l6 72q108 -25 197 -25q55 0 92 37q35 35 35 111q0 131 -117 131q-80 0 -144 -45l-63 4l18 348h357v-72h-287l-14 -208q45 45 133 45q86 0 141 -49.5t55 -153.5q0 -109 -59 -164q-58 -55 -147 -55q-40 0 -92.5 6t-79.5 12z" />
<glyph horiz-adv-x="540" d="M55 117q0 182 62 260q61 76 180 76q76 0 164 -19l-4 -65q-78 14 -160 14q-80 0 -121 -49q-37 -47 -41 -164l23 8q31 14 59 21q41 10 68 10q209 0 209 -207q0 -104 -58 -164q-59 -61 -157 -61q-224 0 -224 340zM133 94q4 -129 35 -186q34 -61 111 -62q137 0 137 156 q0 78 -29 107q-31 31 -104 30q-35 0 -72 -12q-43 -14 -57 -21q-21 -8 -21 -12z" />
<glyph horiz-adv-x="540" d="M61 365v69h398v-125l-230 -530l-73 16l225 518v52h-320z" />
<glyph horiz-adv-x="540" d="M39 -43q0 78 29 113q27 33 96 61q-57 20 -88 57q-27 33 -27 97q0 168 221.5 168t221.5 -168q0 -70 -23 -100.5t-90 -53.5q63 -18 92 -53q31 -37 31 -109q0 -109 -60 -149q-61 -43 -172 -43q-231 0 -231 180zM117 -41q0 -113 153.5 -113t153.5 121q0 57 -25 82 q-27 29 -92 43h-74q-59 -14 -90 -45q-26 -27 -26 -88zM127 285q0 -47 23 -74q20 -25 83 -43h74q63 16 84 39q23 27 23 76q0 51 -33 75q-34 25 -111 25q-143 0 -143 -98z" />
<glyph horiz-adv-x="540" d="M47 238q0 98 62 157q59 57 157 58q223 0 223 -344q0 -182 -59 -259q-57 -74 -186 -73q-80 0 -168 20l6 64q80 -14 162 -15q170 0 172 211q-92 -35 -162 -34q-94 0 -150 59q-57 62 -57 156zM125 240q0 -66 35 -107t96 -41q68 0 160 43q-3 123 -37 184q-35 63 -113 64 q-68 0 -104.5 -36.5t-36.5 -106.5z" />
<glyph horiz-adv-x="1521" d="M219 0v164h82v-164h-82zM739 0v164h82v-164h-82zM1260 0v164h81v-164h-81z" />
<glyph horiz-adv-x="788" d="M20 -104q0 98 41 174q47 86 103 139l121 110q53 47 100 115q43 61 43 123v78h72v-84q0 -74 -41 -137q-43 -68 -103 -121l-120 -113q-61 -61 -102.5 -130.5t-41.5 -153.5q0 -141 82 -198.5t256 -57.5q100 0 330 57l10 -70q-229 -55 -340 -55q-201 0 -307 76 q-103 72 -103 248zM422 858v164h82v-164h-82z" />
<glyph horiz-adv-x="788" d="M41 305q0 92 43 172q49 90 102 141l119 111q63 57 103 113q41 59 41 125v77h71v-83q0 -68 -43 -136q-45 -72 -102 -123l-119 -112q-57 -57 -100 -131t-43 -154q0 -139 84 -199q82 -57 254 -57q102 0 329 57l11 -69q-229 -55 -340 -55q-199 0 -306 75q-104 74 -104 248z M442 1268v164h82v-164h-82z" />
<glyph horiz-adv-x="788" d="M41 305q0 92 43 172q49 90 102 141l119 111q63 57 103 113q41 59 41 125v77h71v-83q0 -68 -43 -136q-45 -72 -102 -123l-119 -112q-57 -57 -100 -131t-43 -154q0 -139 84 -199q82 -57 254 -57q102 0 329 57l11 -69q-229 -55 -340 -55q-199 0 -306 75q-104 74 -104 248z M442 1268v164h82v-164h-82z" />
<glyph horiz-adv-x="1024" d="M0 578v69h1024v-69h-1024z" />
<glyph horiz-adv-x="2048" d="M0 578v69h2048v-69h-2048z" />
<glyph horiz-adv-x="505" d="M201 614v164h82v-164h-82z" />
<glyph d="M512 1268v164h82v-164h-82zM518 0v995h72v-995h-72z" />
<glyph horiz-adv-x="530" d="M115 678q0 181 49 411.5t98 368.5l51 139h72q-35 -96 -55 -159q-31 -98 -86 -344q-53 -238 -54 -416q0 -341 179 -830l16 -43h-72l-55 140q-31 82 -88 319q-55 232 -55 414z" />
<glyph horiz-adv-x="530" d="M115 -184q35 96 55 159q31 98 86 344q53 238 53 416q0 341 -178 830l-16 43h71l56 -140q31 -82 88 -319q55 -231 55 -414q0 -181 -49 -411.5t-98 -368.5l-52 -139h-71z" />
<glyph horiz-adv-x="612" d="M100 -190v1785h373v-65h-301v-1655h301v-65h-373z" />
<glyph horiz-adv-x="612" d="M104 -125h302v1655h-302v65h373v-1785h-373v65z" />
<glyph horiz-adv-x="581" d="M0 664v65q117 28 166 86q47 55 47 160q0 27 -6 125q-8 131 -8 137q0 180 84 268q82 84 276 94l4 -65q-170 -10 -231.5 -80t-61.5 -217q0 -37 6 -125l9 -119q0 -137 -45 -196q-46 -61 -160 -99q115 -37 160 -100t45 -190q-2 -10 -9 -105q-6 -86 -6 -133q0 -147 64 -217 q66 -72 229 -80l-4 -66q-199 10 -278 93q-82 84 -82 270q0 12 8 135q6 92 6 117q0 100 -47 153.5t-166 88.5z" />
<glyph horiz-adv-x="581" d="M-2 -135q172 10 231 78q61 70 62 219q0 6 -8 125q-6 90 -7 119q0 137 46 196q46 61 159 98q-115 37 -160 100.5t-45 190.5q2 10 9 105q6 86 6 133q0 147 -64 217q-66 72 -229 80l4 65q195 -10 277 -94q84 -88 83 -268q0 -14 -8 -137q-6 -92 -6 -115q0 -100 47 -153.5 t166 -88.5v-65q-117 -28 -166 -86q-47 -55 -47 -160q0 -27 6 -125q8 -131 8 -137q0 -180 -83 -268q-82 -84 -277 -95z" />
<glyph horiz-adv-x="438" d="M20 1825l33 63l393 -196l-30 -56z" />
<glyph horiz-adv-x="438" d="M61 1825l33 63l393 -196l-30 -56z" />
<glyph horiz-adv-x="438" d="M41 1692l393 196l33 -63l-395 -189z" />
<glyph horiz-adv-x="438" d="M41 1692l393 196l33 -63l-395 -189z" />
<glyph horiz-adv-x="911" d="M152 1657l274 256h61l275 -256h-92l-213 196l-211 -196h-94z" />
<glyph horiz-adv-x="438" d="M-51 1657l274 256h62l274 -256h-92l-213 196l-211 -196h-94z" />
<glyph horiz-adv-x="438" d="M-55 1913h92l213 -197l211 197h94l-274 -256h-62z" />
<glyph horiz-adv-x="438" d="M-55 1913h92l213 -197l211 197h94l-274 -256h-62z" />
<glyph horiz-adv-x="438" d="M-72 1780q117 117 185 116q47 0 172 -65q121 -63 153 -64q16 0 54 25q23 14 65 53l29 27l22 -57q-106 -113 -170 -113q-47 0 -172 65.5t-153 65.5q-18 0 -60 -27q-29 -18 -71 -57l-33 -29z" />
<glyph horiz-adv-x="438" d="M-72 1780q117 117 185 116q47 0 172 -65q121 -63 153 -64q16 0 54 25q23 14 65 53l29 27l22 -57q-106 -113 -170 -113q-47 0 -172 65.5t-153 65.5q-18 0 -60 -27q-29 -18 -71 -57l-33 -29z" />
<glyph horiz-adv-x="438" d="M-2 1716v127h72v-127h-72zM399 1716v127h72v-127h-72z" />
<glyph horiz-adv-x="438" d="M-2 1716v127h72v-127h-72zM399 1716v127h72v-127h-72z" />
<glyph horiz-adv-x="438" d="M-41 1704v65h588v-65h-588z" />
<glyph horiz-adv-x="438" d="M-41 1704v65h588v-65h-588z" />
<glyph horiz-adv-x="438" d="M-31 1892h72q0 -82 61 -131q59 -47 149.5 -47t149.5 47q61 49 62 131h72q0 -115 -82 -178q-84 -66 -201 -65.5t-201 65.5q-82 63 -82 178z" />
<glyph horiz-adv-x="438" d="M-31 1892h72q0 -82 61 -131q59 -47 149.5 -47t149.5 47q61 49 62 131h72q0 -115 -82 -178q-84 -66 -201 -65.5t-201 65.5q-82 63 -82 178z" />
<glyph horiz-adv-x="438" d="M47 1683.5q0 90.5 55.5 139.5t143.5 49t143 -49t55 -139.5t-55 -139.5t-143 -49t-143.5 49t-55.5 139.5zM115 1683.5q0 -59.5 35 -94.5q33 -33 96 -33t96 33q35 35 35 94.5t-35 94.5q-33 33 -96.5 32.5t-95.5 -32.5q-35 -35 -35 -94.5z" />
<glyph horiz-adv-x="438" d="M41 1683.5q0 90.5 55.5 139.5t143.5 49q90 0 145 -49q53 -47 53 -139.5t-53 -139.5q-55 -49 -145 -49q-88 0 -143.5 49t-55.5 139.5zM109 1683.5q0 -59.5 34 -94.5q33 -33 96.5 -33t96.5 33q35 35 35 94.5t-35 94.5q-33 33 -96.5 32.5t-96.5 -32.5q-34 -35 -34 -94.5z " />
<glyph horiz-adv-x="438" d="M-106 1620l393 180l28 -61l-391 -178zM285 1620l391 178l31 -59l-394 -180z" />
<glyph horiz-adv-x="438" d="M-106 1620l393 180l28 -61l-391 -178zM285 1620l391 178l31 -59l-394 -180z" />
<glyph horiz-adv-x="438" d="M184 1604v112h72v-112h-72z" />
<glyph horiz-adv-x="438" d="M184 1604v112h72v-112h-72z" />
<glyph horiz-adv-x="540" d="M45 1098q0 334 229 334q113 0 172.5 -78t59.5 -258q0 -340 -230 -340q-231 0 -231 342zM121 1096q0 -143 39 -207t116.5 -64t114.5 62q39 66 39 211q0 135 -37 200q-37 63 -119 64q-80 0 -116 -64q-37 -64 -37 -202z" />
<glyph horiz-adv-x="540" d="M80 1276l203 137h73v-639h-73v559l-168 -114z" />
<glyph horiz-adv-x="540" d="M57 774v70l201 213q51 55 57 63q16 20 37 64q16 33 17 76q0 102 -117 102q-72 0 -184 -25l-5 68q100 27 191 27q188 0 188 -175q0 -61 -32.5 -120.5t-100.5 -126.5l-155 -166h303v-70h-400z" />
<glyph horiz-adv-x="540" d="M59 778l7 66q111 -18 213 -19q129 0 129 119q0 125 -123 125h-133v70h133q39 0 71.5 39t32.5 90q0 47 -27 71q-25 23 -92 23q-57 0 -90 -4l-41.5 -5t-36.5 -5l-28 -5l-6 66q113 23 200 23q100 0 148 -39q49 -41 49 -125q0 -52 -25 -92q-23 -37 -41 -50q-20 -12 -32 -18 q59 -18 88 -49q29 -33 28 -113q0 -190 -204 -190q-95 -1 -220 22z" />
<glyph horiz-adv-x="540" d="M37 891v65l182 457h78l-178 -452h217v178h74v-178h75v-70h-75v-117h-74v117h-299z" />
<glyph horiz-adv-x="540" d="M78 780l6 72q108 -25 197 -25q55 0 92 37q35 35 35 111q0 131 -117 131q-80 0 -144 -45l-63 4l18 348h357v-72h-287l-14 -208q45 45 133 45t141 -48q55 -49 55 -155q0 -109 -59 -164q-58 -55 -147 -55q-41 0 -91 6q-55 6 -81 12z" />
<glyph horiz-adv-x="540" d="M55 1096q0 182 62 260q61 76 180 76q76 0 164 -19l-4 -65q-78 14 -160 14q-80 0 -121 -49q-37 -47 -41 -164l23 8q31 14 59 21q41 10 68 10q209 0 209 -207q0 -104 -58 -164q-59 -61 -157 -61q-224 0 -224 340zM133 1073q4 -129 35 -186q34 -61 111 -62q137 0 137 156 q0 78 -29 106q-31 31 -104 31q-41 0 -72 -10q-23 -6 -57 -23q-21 -8 -21 -12z" />
<glyph horiz-adv-x="540" d="M61 1343v70h398v-125l-230 -530l-73 16l225 518v51h-320z" />
<glyph horiz-adv-x="540" d="M39 936q0 78 29 113q27 33 96 61q-57 20 -88 57q-27 33 -27 97q0 168 221.5 168t221.5 -168q0 -70 -23 -100.5t-90 -53.5q63 -18 92 -53q31 -37 31 -109q0 -109 -60 -149q-61 -43 -172 -43q-231 0 -231 180zM117 938q0 -113 153.5 -113t153.5 121q0 57 -25 82 q-27 29 -92 43h-74q-59 -14 -90 -45q-26 -27 -26 -88zM127 1264q0 -47 23 -74q20 -25 83 -43h74q63 16 84 39q23 27 23 76q0 51 -33 75q-34 25 -111 25q-143 0 -143 -98z" />
<glyph horiz-adv-x="540" d="M47 1217q0 98 62 157q59 57 157 58q223 0 223 -345q0 -182 -59 -258q-57 -74 -186 -73q-80 0 -168 20l6 64q80 -14 162 -15q170 0 172 211q-92 -35 -162 -35q-94 0 -150 58q-57 62 -57 158zM125 1219q0 -66 35 -107t96 -41q68 0 160 43q-4 125 -37 186q-35 61 -113 62 q-68 0 -104.5 -36.5t-36.5 -106.5z" />
</font>
</defs>
</svg>
