<?xml version="1.0" standalone="no"?>
<!DOCTYPE svg PUBLIC "-//W3C//DTD SVG 1.1//EN" "http://www.w3.org/Graphics/SVG/1.1/DTD/svg11.dtd" >
<svg xmlns="http://www.w3.org/2000/svg">
<metadata>
This is a custom SVG webfont generated by Font Squirrel.
Copyright   : Generated in 2010 by FontLab Studio Copyright info pending
Designer    : Campivisivi
Foundry     : Campivisivi
</metadata>
<defs>
<font id="webfontOvdmLY06" horiz-adv-x="1083" >
<font-face units-per-em="2048" ascent="1536" descent="-512" />
<missing-glyph horiz-adv-x="479" />
<glyph unicode=" "  horiz-adv-x="479" />
<glyph unicode="&#x09;" horiz-adv-x="479" />
<glyph unicode="&#xa0;" horiz-adv-x="479" />
<glyph unicode="!" d="M471 0v233h168v-233h-168zM471 1432h166l-4 -957h-158z" />
<glyph unicode="&#x22;" horiz-adv-x="632" d="M88 1427h150l-5 -450h-143zM399 1427h150l-4 -450h-144z" />
<glyph unicode="#" d="M16 369v131h228v364h-228v131h228v369h139v-369h315v369h140v-369h225v-131h-225v-364h225v-131h-225v-369h-140v369h-315v-369h-139v369h-228zM383 500h315v364h-315v-364z" />
<glyph unicode="$" d="M104 1034q0 371 453 371q31 0 41 -2l29 223h104l-31 -229l261 -33l-15 -139q-203 23 -264 26l-61 -483q201 -47 286 -125q82 -74 82 -244q0 -418 -444 -417h-25l-31 -236q-104 6 -104 14l29 228q-141 12 -293 37l16 139q160 -22 295 -31l66 508q-215 49 -303 129 q-91 80 -91 264zM256 1038q0 -113 57 -164q53 -47 205 -83l60 466h-21q-301 0 -301 -219zM539 129h4q147 0 221 64q72 61 72 200q0 102 -52 148q-53 47 -182 77z" />
<glyph unicode="%" d="M37 1155q0 283 231 283q233 0 234 -285q0 -289 -234 -289q-231 0 -231 291zM160 1155q0 -95 24 -141q25 -45 84.5 -45t85.5 45q25 43 25 139t-23 135q-25 43 -88 43q-59 0 -83.5 -43t-24.5 -133zM248 55l524 1377l96 -48l-522 -1376zM610 293q0 281 232 280 q233 0 233 -282q0 -289 -233 -289q-232 0 -232 291zM733 293q0 -104 23 -143q25 -43 86 -43.5t85.5 45t24.5 139.5q0 92 -24.5 135t-86 43t-85.5 -43q-23 -39 -23 -133z" />
<glyph unicode="&#x26;" horiz-adv-x="1431" d="M98 418q0 166 76 260q76 92 238 156q-61 70 -84 135q-20 59 -21 157q0 139 94 228q90 84 261 84q176 0 266 -84q88 -82 88 -238q0 -139 -72 -227q-70 -86 -237 -166l292 -293q39 125 58 275l149 -3q-27 -205 -88 -372l264 -254l-96 -105l-246 232q-90 -123 -198 -178 q-111 -55 -267 -56q-477 0 -477 449zM254 420q0 -305 328 -305q113 0 198 45q80 41 146 143l-416 422q-135 -45 -195 -115q-61 -70 -61 -190zM461 1110q0 -139 92 -231l55 -58q139 61 197 121q57 61 57 164q0 188 -200.5 188t-200.5 -184z" />
<glyph unicode="'" horiz-adv-x="202" d="M20 1423h156l-10 -462h-141z" />
<glyph unicode="(" horiz-adv-x="530" d="M74 616q0 181 49 412q47 223 98 369l51 139h162q-39 -109 -55 -158q-23 -70 -84 -346q-55 -246 -55 -416q0 -341 178 -829l16 -43h-162l-55 139q-31 82 -88 320q-55 231 -55 413z" />
<glyph unicode=")" horiz-adv-x="530" d="M74 -256q51 139 55 152q23 68 84 333q55 238 55 408t-49 395q-51 238 -96 365l-49 139h162l55 -147q31 -84 88 -332q55 -240 55 -420q0 -181 -49 -405.5t-98 -356.5l-51 -131h-162z" />
<glyph unicode="*" d="M254 938l221 162l-219 157l63 86l216 -155l86 254l100 -33l-82 -260h266v-102h-268l82 -256l-98 -31l-86 258l-220 -162z" />
<glyph unicode="+" horiz-adv-x="935" d="M-47 475v143h440v439h144v-439h444v-143h-444v-442h-144v442h-440z" />
<glyph unicode="," horiz-adv-x="346" d="M53 -252l94 471h166l-112 -471h-148z" />
<glyph unicode="-" horiz-adv-x="899" d="M131 500v151h639v-151h-639z" />
<glyph unicode="." horiz-adv-x="505" d="M158 0v233h166v-233h-166z" />
<glyph unicode="/" d="M180 31l572 1421l145 -53l-571 -1419z" />
<glyph unicode="0" d="M47 653q0 399 123 559q125 162 371 162q164 0 272 -63q104 -61 164 -224q57 -158 57 -432q0 -195 -33 -323q-34 -132 -98 -209q-61 -74 -151 -109q-88 -35 -209 -34q-250 0 -373 151q-123 150 -123 522zM215 653q0 -209 39 -323q39 -117 108 -160q63 -41 181 -41 q169 0 245 111q78 113 78 415q0 322 -75 449q-72 121 -250 121q-174 0 -250 -121t-76 -451z" />
<glyph unicode="1" d="M133 1067l428 285h150v-1352h-158v1171l-346 -231z" />
<glyph unicode="2" d="M117 0v145l391 406l115 121q39 43 82 100q43 58 61 111q16 47 16 112q0 121 -71 174q-70 51 -224 52q-82 0 -153 -11q-106 -14 -139 -22l-56 -12l-12 145q203 53 391 53q215 0 321.5 -88t106.5 -274q0 -139 -61 -248q-59 -102 -213 -260l-344 -352h653v-152h-864z" />
<glyph unicode="3" d="M102 27l17 143q215 -39 413 -39q293 0 293 250q0 237 -276 246h-275v143h273q90 0 168 65.5t78 170.5q0 119 -66 168q-63 49 -211 49q-188 0 -375 -39l-16 141q212 49 399 49q233 0 334 -84q98 -82 98 -268q0 -43 -14 -92q-12 -45 -29 -74q-15 -28 -43 -55q-4 -4 -45 -37 q-6 -4 -17 -12.5t-26 -16.5q-4 -2 -9 -5t-8 -5t-5 -3l-4 -2l-2 -1q120 -43 178 -111q57 -66 57 -221q0 -207 -106.5 -307t-333.5 -100q-96 0 -207 12q-133 14 -174 22z" />
<glyph unicode="4" d="M59 254v127l385 971h172l-376 -949h477v433h157v-433h170v-149h-170v-262h-157v262h-658z" />
<glyph unicode="5" d="M100 39l19 141q243 -49 424 -49q133 0 215 82q80 80 80 227q0 264 -285 265q-74 0 -147 -21q-84 -25 -117 -41l-41 -18l-129 22l41 705h786v-150h-643l-35 -428q160 78 299 78q434 0 434 -406q0 -227 -118.5 -345.5t-333.5 -118.5q-102 0 -205 14q-133 18 -176 29z" />
<glyph unicode="6" d="M68 682q0 692 528 692q176 0 371 -33l-15 -143q-184 25 -356 25q-178 0 -270 -117q-90 -115 -95 -340l54 18q66 23 137 41q82 20 149 21q453 0 453 -420q0 -213 -123 -329.5t-350 -116.5q-483 0 -483 702zM229 625q8 -498 322 -498q154 0 231 76q80 76 80 223 q0 274 -303 274q-152 -5 -330 -75z" />
<glyph unicode="7" d="M113 1202v150h839v-207l-524 -1172l-147 47l507 1133v49h-675z" />
<glyph unicode="8" d="M45 344q0 141 57 221q55 76 177 142q-113 55 -160 124q-51 74 -51 193q0 172 129 260q131 90 352 90q223 0 356 -90t133 -262q0 -127 -51 -193q-53 -68 -174 -122q123 -55 184.5 -129t61.5 -211q0 -387 -510 -387q-504 -1 -504 364zM213 371q0 -242 336 -242 q342 0 342 254q0 111 -60 162q-57 49 -180 84h-215q-111 -31 -168 -90q-55 -59 -55 -168zM236 1006q0 -88 49 -143.5t151 -94.5h215q106 33 164 90q55 55 55 146q0 221 -319 221q-315 0 -315 -219z" />
<glyph unicode="9" d="M70 924q0 211 127 331q125 119 342 119q487 0 487 -702q0 -378 -135 -535q-135 -158 -399 -157q-172 0 -371 30l14 144q184 -25 357 -25q373 0 372 453q-205 -74 -352 -74q-442 0 -442 416zM233 924q0 -270 291 -271q72 0 148 17q80 16 139 37l55 18q-4 236 -82 367 q-80 133 -245 133q-141 0 -223.5 -80t-82.5 -221z" />
<glyph unicode=":" horiz-adv-x="360" d="M123 0v233h168v-233h-168zM123 659v234h168v-234h-168z" />
<glyph unicode=";" horiz-adv-x="403" d="M49 -244l101 480h169l-131 -480h-139zM137 659v234h168v-234h-168z" />
<glyph unicode="&#x3c;" d="M129 555v160l711 430v-162l-564 -344l564 -358v-166q-43 23 -351 217z" />
<glyph unicode="=" d="M68 694v142h936v-142h-936zM70 309v142h936v-142h-936z" />
<glyph unicode="&#x3e;" d="M129 115v166l563 358l-563 344v162l711 -430v-160q-27 -16 -359 -225q-303 -192 -352 -215z" />
<glyph unicode="?" horiz-adv-x="788" d="M16 1401q233 55 344 55q223 0 326 -82q104 -84 105 -274q0 -98 -39 -178q-37 -78 -99 -136q-76 -72 -114 -102q-61 -49 -99 -96q-39 -51 -39 -105v-77h-161v83q0 72 39 136q39 61 98 112l115 99q55 49 96 114q39 63 39 135q0 115 -61.5 164t-209.5 49q-45 0 -125 -12 q-84 -12 -139 -24l-57 -13zM238 2v234h168v-234h-168z" />
<glyph unicode="@" horiz-adv-x="2015" d="M106 535q0 494 234 720q231 225 692 226q455 0 668 -209q211 -209 211 -647v-35q0 -170 -17 -268q-18 -111 -44.5 -176.5t-77.5 -104.5q-49 -37 -98.5 -49t-121.5 -12q-94 0 -151 22q-55 20 -86 90q-209 -111 -359 -110q-78 0 -133 18q-59 20 -112 70q-55 52 -86 159 q-29 100 -29 269q0 272 90 409q88 135 324 135q33 0 100 -14q58 -12 98 -24l39 -13v33h154v-410q0 -237 12 -338q12 -98 41 -126q27 -27 98 -27q49 0 86 14q31 12 64 58q29 39 41 141q12 98 12 254v37q0 375 -168 542q-164 164 -555 164q-395 0 -583 -188 q-186 -186 -187 -610q0 -444 180 -625q178 -178 590 -178l293 18l8 -147q-203 -18 -301 -19q-242 0 -403 45q-166 47 -287 152q-119 102 -178 293q-58 180 -58 461zM750 494q0 -213 59 -289t156 -76q121 0 303 86q-20 111 -21 350v293q-129 41 -213 41q-166 0 -225 -92 q-59 -94 -59 -313z" />
<glyph unicode="A" horiz-adv-x="1234" d="M59 0l390 1425h346l383 -1423h-156l-109 356h-594l-102 -358h-158zM356 510h525l-211 770h-103z" />
<glyph unicode="B" horiz-adv-x="1263" d="M184 0v1425h512q422 0 422 -352q0 -141 -45 -219t-135 -121q106 -37 164 -112q59 -78 59 -220q0 -217 -112 -309q-114 -92 -326 -92h-539zM340 145h377q137 0 209 60q74 61 73 205q0 242 -292 241h-367v-506zM340 795h365q131 0 192 65q59 61 59 193q0 121 -65.5 174 t-200.5 53h-350v-485z" />
<glyph unicode="C" horiz-adv-x="1095" d="M104 709q0 389 109 561q111 176 410 176q82 0 180 -12.5t153 -24.5l58 -10l-8 -142q-231 35 -367 35q-225 0 -299 -133q-74 -131 -74 -450q0 -311 74 -445q74 -131 303 -131q49 0 148 10q92 10 151 19l64 8l6 -143q-231 -47 -389 -47q-154 0 -261 47q-104 47 -159 143 q-57 100 -78 225q-21 121 -21 314z" />
<glyph unicode="D" horiz-adv-x="1312" d="M184 0v1425h506q289 0 406 -180q119 -184 118 -510q0 -163 -24 -289q-25 -125 -80 -229q-55 -102 -162 -160q-109 -57 -258 -57h-506zM340 150h350q360 0 361 585q0 125 -15 211q-16 94 -55 170q-43 82 -111 119q-76 41 -180 41h-350v-1126z" />
<glyph unicode="E" horiz-adv-x="1153" d="M184 0v1425h860v-149h-704v-481h582v-148h-582v-497h704v-150h-860z" />
<glyph unicode="F" horiz-adv-x="1130" d="M184 0v1425h863v-149h-707v-551h584v-150h-584v-575h-156z" />
<glyph unicode="G" horiz-adv-x="1243" d="M106 711q0 375 119 555t426 180q74 0 211 -14q121 -12 187 -25l67 -14l-6 -142q-254 43 -440 43q-231 0 -315.5 -137t-84.5 -446q0 -311 82 -445q82 -135 316 -135q49 0 75 2l41 4t37 2q14 2 37 5t31 3l49 9q12 2 23 2v426h-236v143h391v-698q-292 -49 -461 -49 q-309 0 -428 180q-121 182 -121 551z" />
<glyph unicode="H" horiz-adv-x="1400" d="M184 0v1425h158v-630h721v630h156v-1425h-156v643h-721v-643h-158z" />
<glyph unicode="I" horiz-adv-x="503" d="M174 0v1425h158v-1425h-158z" />
<glyph unicode="J" horiz-adv-x="628" d="M68 0q147 0 188 39q43 40 43 203v1185h156q0 -59 1 -259.5t1 -342.5v-602q0 -133 -21 -203q-23 -76 -74 -110q-57 -37 -118 -47q-68 -10 -176 -10v147z" />
<glyph unicode="K" horiz-adv-x="1216" d="M184 0v1425h158v-657l231 8l363 649h182l-405 -712l428 -713h-187l-376 627l-236 -9v-618h-158z" />
<glyph unicode="L" horiz-adv-x="1048" d="M184 0v1425h158v-1273h623v-152h-781z" />
<glyph unicode="M" horiz-adv-x="1738" d="M184 0v1425h275l411 -1198l414 1198h272v-1425h-157v1241h-29l-414 -1190h-174l-411 1190h-29v-1241h-158z" />
<glyph unicode="N" horiz-adv-x="1417" d="M184 0v1425h283l565 -1241h45v1241h158v-1425h-277l-573 1241h-43v-1241h-158z" />
<glyph unicode="O" horiz-adv-x="1331" d="M106 705q0 375 123 559q121 182 439 182q313 0 436 -182.5t123 -558.5q0 -379 -121 -553q-119 -172 -438 -172q-317 0 -441 174q-121 172 -121 551zM270 704.5q0 -305.5 80 -440.5t318 -135q236 0 315 131q82 135 82 445q0 301 -84 446t-313.5 145t-313.5 -143 t-84 -448.5z" />
<glyph unicode="P" horiz-adv-x="1239" d="M184 0v1425h518q229 0 342 -112q111 -111 111 -344q0 -240 -113 -365q-115 -127 -340 -127h-360v-477h-158zM342 629h358q293 0 293 340q0 160 -69 231q-72 74 -224 74h-358v-645z" />
<glyph unicode="Q" horiz-adv-x="1331" d="M106 705q0 375 123 559q121 182 439 182q313 0 436 -182.5t123 -558.5q0 -260 -53 -420q-53 -158 -181 -234l172 -278l-147 -70l-180 295q-74 -18 -170 -18q-315 0 -438.5 174t-123.5 551zM270 704.5q0 -305.5 80 -440.5t318 -135q236 0 315 131q82 135 82 445 q0 301 -84 446t-313.5 145t-313.5 -143t-84 -448.5z" />
<glyph unicode="R" horiz-adv-x="1275" d="M184 0v1425h525q233 0 342 -102q111 -104 110 -332q0 -332 -260 -411l273 -580h-175l-256 539h-401v-539h-158zM342 688h369q289 0 288 303q0 147 -71 215q-74 70 -219 70h-367v-588z" />
<glyph unicode="S" horiz-adv-x="1091" d="M90 1067q0 381 467 381q152 0 416 -41l-15 -143q-274 33 -401 32q-309 0 -309 -225q0 -129 71 -178q68 -47 277 -94q229 -53 317 -129q90 -78 91 -258q0 -430 -459 -430q-156 0 -436 43l16 143q283 -35 418 -35q156 0 227 64q74 66 74 209q0 119 -66 165q-70 51 -250 84 q-246 53 -340 133q-98 84 -98 279z" />
<glyph unicode="T" horiz-adv-x="1005" d="M-8 1274v151h1024v-151h-432v-1274h-156v1274h-436z" />
<glyph unicode="U" horiz-adv-x="1308" d="M160 430v995h157v-995q0 -297 332 -297q169 0 258 68q88 68 88 229v995h156v-995q0 -233 -127 -342q-125 -106 -375 -106q-242 0 -366 106q-123 104 -123 342z" />
<glyph unicode="V" horiz-adv-x="1212" d="M59 1425h164l332 -1275h109l327 1275h164l-371 -1425h-350z" />
<glyph unicode="W" horiz-adv-x="1841" d="M76 1425h162l260 -1267h59l274 1255h179l282 -1255h60l254 1267h161l-303 -1425h-286l-256 1190l-252 -1190h-285z" />
<glyph unicode="X" horiz-adv-x="1187" d="M61 0l431 707l-431 718h179l356 -598l354 598h178l-423 -718l423 -707h-178l-352 590l-358 -590h-179z" />
<glyph unicode="Y" horiz-adv-x="1128" d="M39 1425h176l352 -639l348 639h177l-445 -815v-610h-158v612z" />
<glyph unicode="Z" horiz-adv-x="1165" d="M123 -2v195l731 1040v41h-731v151h921v-194l-731 -1043v-38h731v-152h-921z" />
<glyph unicode="[" horiz-adv-x="612" d="M84 -252v1786h430v-148h-274v-1490h274v-148h-430z" />
<glyph unicode="\" horiz-adv-x="1097" d="M145 1389l166 71l631 -1421l-166 -68z" />
<glyph unicode="]" horiz-adv-x="612" d="M84 -104h274v1490h-274v148h430v-1786h-430v148z" />
<glyph unicode="^" d="M98 666l359 686h159l371 -686h-166l-284 534l-275 -534h-164z" />
<glyph unicode="_" horiz-adv-x="1062" d="M55 -29h877v-143h-877v143z" />
<glyph unicode="`" horiz-adv-x="481" d="M-2 1399l53 135l447 -193l-49 -118z" />
<glyph unicode="a" horiz-adv-x="1067" d="M100 293q0 147 76 217q78 72 236 86l323 31v84q0 186 -178 186q-158 0 -391 -27l-6 134q252 41 403 40q162 0 244 -81q80 -80 80 -252v-504q2 -78 119 -94l-7 -133q-168 0 -241 77q-186 -78 -379 -77q-133 0 -207 81q-72 80 -72 232zM256 297q0 -84 39 -135 q37 -49 106 -49q76 0 154 14q63 12 131 33l49 14v328l-303 -25q-176 -16 -176 -180z" />
<glyph unicode="b" horiz-adv-x="1105" d="M178 2v1468h154v-493q154 68 299 67q207 0 291 -118.5t84 -395.5q0 -307 -103 -428q-104 -123 -381 -122q-55 0 -141 6q-82 6 -143 12zM332 129q131 -12 188 -12q201 0 266 92q63 90 64 317q0 205 -49 291t-185 86q-133 0 -284 -55v-719z" />
<glyph unicode="c" horiz-adv-x="892" d="M102 530q0 281 97 396q100 119 327 118q47 0 111 -8q27 -4 67.5 -8t51.5 -6l49 -8l-4 -133q-162 18 -242 18q-174 0 -237 -82q-61 -80 -62 -287q0 -231 59.5 -319t239.5 -88l244 18l6 -133q-201 -29 -285 -28q-243 0 -331 122q-91 125 -91 428z" />
<glyph unicode="d" horiz-adv-x="1110" d="M102 508q0 276 99 405q100 131 329 131q106 0 250 -26v416h154v-1434h-154v68q-156 -88 -311 -88q-80 0 -143 22q-57 20 -113 76q-57 57 -84 161.5t-27 268.5zM256 504q0 -119 18 -199q18 -78 56 -115q41 -41 71 -53q39 -16 88 -16q51 0 134 20q70 16 114 37l43 19v686 q-176 23 -241 22q-154 0 -220 -96q-63 -94 -63 -305z" />
<glyph unicode="e" horiz-adv-x="1036" d="M102 506q0 539 430 538q209 0 310 -116q102 -119 102 -363l-8 -119h-678q4 -172 61 -247q61 -80 209 -80q66 0 162 6q35 2 154 8l59 4l4 -125q-223 -33 -397 -32q-223 0 -315.5 129t-92.5 397zM258 571h533q0 181 -62 258q-61 78 -197 78q-274 0 -274 -336z" />
<glyph unicode="f" horiz-adv-x="681" d="M57 885v139h129v92q0 221 60 295q61 78 215 78l207 -14l-2 -127q-152 4 -174 4q-86 0 -121 -49q-33 -47 -33 -189v-90h299v-139h-299v-885h-152v885h-129z" />
<glyph unicode="g" horiz-adv-x="1058" d="M96 -172q0 83 37 135q41 57 125 119q-55 37 -55 141q0 14 18.5 57.5t32.5 71.5l16 33q-160 74 -159 309q0 350 381 350q94 0 213 -26l299 6v-131h-185q63 -66 64 -199q0 -195 -94.5 -270.5t-303.5 -75.5q-59 0 -100 8q-37 -90 -37 -116q0 -63 39 -78q43 -16 209 -17 q225 0 311 -61t86 -240q0 -334 -456 -333q-246 0 -344 67q-97 66 -97 250zM248 -160q0 -109 61 -151q59 -41 230 -41q158 0 227 45q72 47 72 145q0 111 -52 142q-53 31 -200 30l-224 10q-68 -51 -90 -86q-24 -37 -24 -94zM264 694q0 -119 47 -166q49 -49 174 -49 q133 0 187 47q57 51 57 168q0 129 -51 172q-55 45 -189 45q-117 0 -172 -49q-53 -47 -53 -168z" />
<glyph unicode="h" horiz-adv-x="1155" d="M178 0v1495h154v-520q170 70 315 69q205 0 277 -112q70 -109 69 -397v-535h-153v532q0 209 -41 291q-41 80 -174 80q-55 0 -133 -16q-88 -18 -117 -29l-43 -14v-844h-154z" />
<glyph unicode="i" horiz-adv-x="481" d="M166 0v1024h151v-1024h-151zM166 1255v179h151v-179h-151z" />
<glyph unicode="j" horiz-adv-x="505" d="M-66 -342q158 90 207 156q49 63 49 198v1012h152v-1014q0 -187 -68 -282q-68 -94 -272 -199zM190 1262v180h152v-180h-152z" />
<glyph unicode="k" horiz-adv-x="1015" d="M178 0v1470h154v-858l157 9l306 403h172l-342 -471l348 -553h-174l-307 469l-160 -8v-461h-154z" />
<glyph unicode="l" horiz-adv-x="493" d="M172 0v1470h152v-1470h-152z" />
<glyph unicode="m" horiz-adv-x="1767" d="M178 0v1024h154v-70q121 72 256 82q38 5 69 5q24 0 43 -3q127 -12 189 -86q242 92 371 92q206 0 276 -110q70 -109 70 -402v-532h-154v485q0 246 -39 334q-37 84 -176 84q-137 0 -287 -76q25 -71 25 -295v-532h-154v528q0 219 -41 297t-174 78q-53 0 -129 -20 q-72 -20 -106 -37l-39 -19v-827h-154z" />
<glyph unicode="n" horiz-adv-x="1161" d="M178 0v1024h154v-68q170 88 317 88q203 0 275 -112q70 -109 69 -400v-532h-151v530q0 211 -41 293q-39 80 -176 80q-139 0 -293 -76v-827h-154z" />
<glyph unicode="o" horiz-adv-x="1079" d="M102 526q0 272 101 394q102 125 340 124q227 0 331.5 -129t104.5 -393q0 -285 -94 -411q-96 -131 -342 -131q-250 0 -346 126q-95 125 -95 420zM260 526q0 -230 55 -319q55 -90 228 -90q170 0 225 92q53 88 53 313q0 203 -65.5 293t-212.5 90q-162 0 -224 -84 q-59 -80 -59 -295z" />
<glyph unicode="p" horiz-adv-x="1107" d="M178 -455v1479h154v-72q154 92 305 92q194 0 283 -122q88 -121 88 -398q0 -301 -103 -422q-104 -123 -344 -122q-121 0 -229 22v-457h-154zM332 139q102 -23 221 -22q169 0 233 92q66 94 66 319q0 199 -59.5 287t-176.5 88q-133 0 -284 -80v-684z" />
<glyph unicode="q" horiz-adv-x="1097" d="M102 494q0 285 104.5 417.5t362.5 132.5l353 -20v-1479h-154v490q-111 -55 -258 -55q-218 0 -313 129q-95 127 -95 385zM258 496q0 -190 57.5 -284.5t194.5 -94.5q139 0 258 63v717q-121 8 -197 8q-180 0 -245 -96q-68 -98 -68 -313z" />
<glyph unicode="r" horiz-adv-x="727" d="M178 0v1024h154v-135q154 117 356 155v-159q-78 -14 -176 -51q-74 -29 -133 -64l-47 -27v-743h-154z" />
<glyph unicode="s" horiz-adv-x="999" d="M113 745q0 156 106.5 227.5t261.5 71.5q158 0 371 -38l-4 -134q-221 33 -359 33q-221 0 -221 -153q0 -72 49 -103q51 -33 201 -53q213 -35 291 -94.5t78 -202.5q0 -172 -101 -246q-102 -74 -299 -73q-117 0 -360 38l8 134q240 -35 338 -35q129 0 195 39q63 39 63 137 q0 78 -49 108q-47 31 -209 56q-203 31 -280 88q-80 57 -80 200z" />
<glyph unicode="t" horiz-adv-x="741" d="M55 885v139h146v313h153v-313h324v-139h-324v-477q0 -174 24.5 -229.5t123.5 -55.5l182 10l8 -133q-141 -23 -207 -23q-164 0 -223 78q-61 80 -61 297v533h-146z" />
<glyph unicode="u" horiz-adv-x="1142" d="M164 489v535h151v-532q0 -223 39 -299t178 -76q51 0 130 20q71 18 110 37l41 19v831h152v-1024h-152v66q-160 -86 -303 -86q-209 0 -277 108q-69 110 -69 401z" />
<glyph unicode="v" horiz-adv-x="985" d="M49 1024h160l246 -893h75l250 893h156l-291 -1024h-307z" />
<glyph unicode="w" horiz-adv-x="1548" d="M57 1024h154l205 -885h33l245 865h162l244 -865h33l206 885h154l-244 -1024h-260l-215 801l-219 -801h-256z" />
<glyph unicode="x" horiz-adv-x="940" d="M55 0l320 512l-320 512h166l250 -401l250 401h168l-322 -512l322 -512h-168l-250 399l-248 -399h-168z" />
<glyph unicode="y" horiz-adv-x="985" d="M49 1024h154l256 -877h69l256 877h154l-426 -1479h-154l131 455h-149z" />
<glyph unicode="z" horiz-adv-x="978" d="M111 0v139l575 746h-575v139h759v-139l-575 -746h575v-139h-759z" />
<glyph unicode="{" horiz-adv-x="626" d="M20 571v131q114 28 160 80q45 51 45 142q0 8 -1 23.5l-3 45l-4 56.5q-6 98 -6 137q0 188 90 270q90 80 303 90l2 -147q-135 -8 -184 -57.5t-49 -163.5q0 -2 8 -129q6 -95 6 -123q0 -129 -45 -189q-46 -61 -160 -98q115 -37 160 -100.5t45 -190.5q0 -4 -6 -100 q-8 -127 -8 -137q0 -111 49 -164t184 -62l-2 -147q-209 9 -301 92q-92 84 -92 266q0 43 6 135l4 52.5l3 42t1 20.5q0 92 -45 143t-160 82z" />
<glyph unicode="|" d="M455 -260v1735h155v-1735h-155z" />
<glyph unicode="}" horiz-adv-x="626" d="M20 -115q137 10 185 60q49 52 49 166q0 41 -6 125q-8 111 -8 112q0 125 47 191q45 63 157 100q-117 39 -159 98q-45 63 -45 189q0 8 1 23.5l3 45t4 54.5q6 95 6 129q0 115 -49 163q-47 47 -185 58l3 147q213 -10 303 -90q90 -82 90 -270q0 -8 -8 -139q-6 -98 -7 -123 q0 -90 45 -142q46 -52 160 -80v-131q-113 -31 -160 -84q-45 -51 -45 -141q0 -23 7 -115q8 -123 8 -135q0 -182 -92 -266q-92 -83 -301 -92z" />
<glyph unicode="~" d="M131 668q6 6 35 30q23 20 82 50q61 31 112 30q66 0 199 -51t180 -51q35 0 84 24q53 27 84 50l33 22l14 -147q-4 -4 -32 -29q-18 -16 -78 -47q-57 -31 -107 -31q-68 0 -203 51.5t-180 51.5q-39 0 -90 -25q-47 -23 -84 -49l-33 -25z" />
<glyph unicode="&#xa1;" d="M471 788v234h168v-234h-168zM473 -410l4 957h158l4 -957h-166z" />
<glyph unicode="&#xa2;" horiz-adv-x="892" d="M82 508q0 426 362 444v242h136v-248q207 -20 206 -20l-6 -138q-174 14 -266 15q-152 0 -211 -65.5t-59 -229.5q0 -168 57 -225q59 -59 227 -60l254 13l6 -138q-100 -12 -206 -20v-244h-136v240q-188 8 -276 106.5t-88 327.5z" />
<glyph unicode="&#xa3;" d="M168 0v135h174v586h-137v135h137v131q0 233 78 322q76 84 237 84q40 0 105 -7q25 -2 108 -14l45 -6v-133q-176 23 -253 22q-100 0 -134 -57q-35 -59 -34 -221v-121h348v-135h-348v-586h315l156 33l26 -131l-168 -37h-655z" />
<glyph unicode="&#xa4;" horiz-adv-x="1081" d="M88 170l143 143q-59 94 -59 203t59 203l-143 143l109 109l143 -146q94 59 203 60q113 0 202 -60l144 146l108 -109l-145 -143q59 -94 59 -202.5t-59 -203.5l145 -143l-108 -109l-144 144q-94 -59 -202 -60q-113 0 -203 60l-143 -144zM319 516q0 -96 64 -160 q66 -66 160 -65.5t159 65.5q63 63 63.5 159.5t-63.5 160.5q-66 66 -159.5 65.5t-159.5 -65.5q-64 -64 -64 -160z" />
<glyph unicode="&#xa5;" horiz-adv-x="1103" d="M27 1352h176l352 -553l348 553h176l-350 -574h279v-133h-357l-16 -39v-131h375v-133h-375v-342h-158v342h-379v133h379v131l-16 39h-365v133h287z" />
<glyph unicode="&#xa6;" d="M451 -262v782h153v-782h-153zM451 754v782h153v-782h-153z" />
<glyph unicode="&#xa7;" d="M139 522q0 80 43 156q45 80 76 102q-90 66 -90 228q0 326 393 325q131 0 336 -35l-8 -129q-225 31 -322 31q-133 0 -190 -45q-59 -47 -60 -143q0 -100 61.5 -137t231.5 -68q176 -33 254 -94q76 -59 76 -203q0 -135 -90 -268q76 -63 76 -205q0 -344 -391 -344 q-68 0 -148 8q-129 14 -149 16l-62 11l14 129q223 -31 336 -31q252 0 252 203q0 92 -59.5 122.5t-235.5 65.5q-184 34 -264 98q-80 66 -80 207zM293 545q0 -90 51 -129q53 -41 180 -62q133 -25 209 -55q12 20 31 74q20 59 20 119q0 90 -53 126.5t-182 61.5q-125 20 -189 45 q-67 -114 -67 -180z" />
<glyph unicode="&#xa8;" horiz-adv-x="481" d="M-25 1280v184h148v-184h-148zM385 1280v184h150v-184h-150z" />
<glyph unicode="&#xa9;" d="M20 889q0 231 150 387q152 158 373 158q229 0 375 -158q150 -162 149.5 -387t-149.5 -385q-147 -158 -377 -158q-219 0 -371 158q-150 156 -150 385zM111 889q0 -188 122 -322q123 -131 310 -131q188 0 311 131q123 133 123 321.5t-123 321.5t-311 133q-184 0 -307 -133 q-125 -135 -125 -321zM303 891q0 157 55 233q55 78 187 78l153 -12l-2 -125q-70 12 -151 12q-72 0 -96 -47q-23 -43 -23 -139q0 -190 119 -191q80 0 151 15l2 -125q-82 -16 -153 -17q-131 0 -187 78q-55 77 -55 240z" />
<glyph unicode="&#xaa;" horiz-adv-x="1058" d="M283 954q0 143 153 156l209 14v47q0 63 -24.5 88t-81.5 25l-213 -14l-4 63q152 16 217 17q89 0 129 -43q41 -45 41 -138v-274q12 -41 75 -47l-4 -57q-70 4 -110 45q-127 -45 -244 -45q-63 0 -102 45q-41 46 -41 118zM350 950q0 -94 82 -94q47 0 94 8q59 10 86 19l33 8 v174l-199 -12q-51 -2 -73.5 -29t-22.5 -74z" />
<glyph unicode="&#xab;" horiz-adv-x="1198" d="M184 446v123l387 293v-157l-254 -193l254 -215v-160zM670 446v123l389 293v-157l-256 -193l256 -215v-160z" />
<glyph unicode="&#xac;" d="M125 561v148h840v-478h-152v330h-688z" />
<glyph unicode="&#xad;" horiz-adv-x="899" d="M131 500v151h639v-151h-639z" />
<glyph unicode="&#xae;" d="M4 888.5q0 235.5 149.5 397.5t389.5 162q238 0 391 -162q154 -164 153.5 -397.5t-153.5 -394.5q-154 -164 -391 -164q-240 0 -389.5 161.5t-149.5 397zM94 889q0 -194 129 -332q129 -137 319.5 -137t319.5 137q131 141 131 332q0 193 -131 334q-129 137 -319 137 q-193 0 -322 -135q-127 -133 -127 -336zM315 565v645h215q123 0 185 -45q57 -43 57 -149q0 -150 -102 -193l116 -258h-127l-108 244h-119v-244h-117zM432 907h121q53 0 80 23q25 22 24 80q0 53 -30.5 77.5t-96.5 24.5h-98v-205z" />
<glyph unicode="&#xaf;" horiz-adv-x="481" d="M-45 1298v136h596v-136h-596z" />
<glyph unicode="&#xb0;" d="M209 1155q0 129 82 211q80 80 209 80q131 0 211 -80t80 -211q0 -129 -80 -209t-211 -80q-129 0 -209 80q-82 82 -82 209zM313 1155q0 -84 52 -135q53 -53 135 -53q84 0 137 53t53 135q0 84 -53 137.5t-137 53.5q-82 0 -135 -54q-52 -51 -52 -137z" />
<glyph unicode="&#xb1;" d="M80 651v142h393v266h143v-266h402v-142h-402v-266h-143v266h-393zM82 123v141h938v-141h-938z" />
<glyph unicode="&#xb2;" horiz-adv-x="540" d="M45 979v115l180 176q104 102 105 170q0 74 -101 73q-63 0 -172 -20l-6 121q123 25 211 24q109 0 156 -45q49 -46 49 -141q0 -117 -127 -231l-125 -123h260v-119h-430z" />
<glyph unicode="&#xb3;" horiz-adv-x="540" d="M51 979l10 115q106 -14 205 -15q100 0 101 84q0 86 -95 86h-135v111h133q29 0 53.5 26.5t24.5 63.5q0 68 -92 68l-186 -15l-11 115q115 20 209 20q217 0 217 -172q0 -102 -82 -153q49 -14 74 -49t25 -107q0 -199 -219 -199q-63 0 -103 5q-55 6 -94 12z" />
<glyph unicode="&#xb4;" horiz-adv-x="546" d="M49 1341l447 195l55 -143l-451 -176z" />
<glyph unicode="&#xb5;" d="M156 -487v1511h153v-553q0 -209 39 -281q41 -74 176 -73q53 0 131 20q71 18 111 37l39 19v831h151v-1024h-151v66q-160 -86 -303 -86q-133 0 -193 65v-532h-153z" />
<glyph unicode="&#x3bc;" d="M156 -487v1511h153v-553q0 -209 39 -281q41 -74 176 -73q53 0 131 20q71 18 111 37l39 19v831h151v-1024h-151v66q-160 -86 -303 -86q-133 0 -193 65v-532h-153z" />
<glyph unicode="&#xb6;" d="M16 1055q0 164 109 272q106 106 274 107h674v-125h-149v-1309h-138v1309h-237v-1309h-137v680h-15q-168 0 -274.5 104.5t-106.5 270.5z" />
<glyph unicode="&#xb7;" horiz-adv-x="505" d="M158 502v233h166v-233h-166z" />
<glyph unicode="&#xb8;" horiz-adv-x="1703" d="M784 -430l7 98q80 -6 135 -6q90 0 90 78q0 70 -90 70h-86v192h84v-102q123 0 176 -33t53 -127q0 -184 -192 -184q-29 0 -87 4q-45 4 -65 6z" />
<glyph unicode="&#xb9;" horiz-adv-x="540" d="M61 1475l209 143h123v-639h-131v496l-139 -97z" />
<glyph unicode="&#xba;" horiz-adv-x="1075" d="M295 1073q0 276 235 277q121 0 175 -66q57 -70 57 -211q0 -283 -232 -282q-235 -1 -235 282zM365 1073q0 -121 38 -168q39 -49 127 -49t125 49t37 168t-37 164q-37 47 -125 47t-126.5 -47t-38.5 -164z" />
<glyph unicode="&#xbb;" horiz-adv-x="1198" d="M141 137v160l256 215l-256 193v157l389 -293v-123zM629 137v160l254 215l-254 193v157l387 -293v-123z" />
<glyph unicode="&#xbf;" horiz-adv-x="788" d="M16 -76q0 98 39 178q37 78 99 136q76 72 114 102q61 49 99 96q39 51 39 105v77h161v-83q0 -70 -41 -136q-43 -70 -96 -114l-113 -97q-61 -53 -98 -114q-39 -63 -39 -135q0 -115 61.5 -164t209.5 -49q45 0 124 12q84 12 140 24l57 13l19 -152q-233 -55 -345 -55 q-223 0 -325 82q-105 84 -105 274zM401 788v234h168v-234h-168z" />
<glyph unicode="&#xc0;" horiz-adv-x="1234" d="M63 0l390 1425h346l383 -1423h-156l-108 356h-594l-103 -358h-158zM336 1774l57 141l447 -193l-52 -127zM360 510h525l-211 770h-103z" />
<glyph unicode="&#xc1;" horiz-adv-x="1234" d="M63 0l390 1425h346l383 -1423h-156l-108 356h-594l-103 -358h-158zM360 510h525l-211 770h-103zM381 1751l446 195l56 -144l-451 -176z" />
<glyph unicode="&#xc2;" horiz-adv-x="1234" d="M63 0l390 1425h346l383 -1423h-156l-108 356h-594l-103 -358h-158zM301 1622l256 303h123l258 -303h-170l-147 172l-150 -172h-170zM360 510h525l-211 770h-103z" />
<glyph unicode="&#xc3;" horiz-adv-x="1234" d="M63 0l390 1425h344l385 -1423h-158l-106 356h-594l-105 -358h-156zM279 1794q104 111 188 111q53 0 164 -50q115 -51 137 -51q43 0 143 82l35 -119q-95 -104 -178 -104q-49 0 -159.5 51t-141.5 51q-49 0 -152 -88zM360 510h523l-209 770h-103z" />
<glyph unicode="&#xc4;" horiz-adv-x="1234" d="M63 0l390 1425h344l385 -1423h-158l-106 356h-594l-105 -358h-156zM360 510h523l-209 770h-103zM375 1690v184h147v-184h-147zM784 1690v184h148v-184h-148z" />
<glyph unicode="&#xc5;" horiz-adv-x="1234" d="M63 0l375 1372q-59 59 -59 152q0 98 70 157q66 57 174 57.5t174 -57.5q68 -59 67 -157q0 -86 -53 -146l371 -1376h-156l-108 356h-594l-103 -358h-158zM360 510h525l-211 770h-103zM504 1524q0 -80 69 -99h95q72 23 71 99q0 49 -30 75q-29 27 -86 27q-59 0 -88 -27 q-31 -26 -31 -75z" />
<glyph unicode="&#xc6;" horiz-adv-x="1837" d="M82 0l459 1425h1198v-149h-705v-471h582v-150h-582v-505h705v-150h-860v358h-514l-121 -358h-162zM408 510h471v766h-224z" />
<glyph unicode="&#xc7;" horiz-adv-x="1097" d="M104 709q0 389 109 561q111 176 410 176q82 0 180 -12.5t153 -24.5l58 -10l-8 -142q-231 35 -367 35q-225 0 -299 -133q-74 -131 -74 -450q0 -311 74 -445q74 -131 303 -131q49 0 148 10q92 10 151 19l64 8l6 -143q-215 -45 -369 -47v-80q121 0 174 -33q55 -35 55 -127 q0 -184 -192 -184q-27 0 -84 4l-70 6l-22 4l6 98q80 -6 135 -6q90 0 90 78q0 70 -90 70h-86v172q-266 18 -360.5 192.5t-94.5 534.5z" />
<glyph unicode="&#xc8;" horiz-adv-x="1153" d="M184 0v1425h860v-149h-704v-481h582v-148h-582v-497h704v-150h-860zM356 1774l58 141l446 -193l-51 -127z" />
<glyph unicode="&#xc9;" horiz-adv-x="1169" d="M188 0v1425h861v-149h-705v-481h582v-148h-582v-497h705v-150h-861zM395 1751l447 195l55 -144l-451 -176z" />
<glyph unicode="&#xca;" horiz-adv-x="1169" d="M188 0v1425h861v-149h-705v-481h582v-148h-582v-497h705v-150h-861zM315 1622l256 303h123l258 -303h-170l-147 172l-150 -172h-170z" />
<glyph unicode="&#xcb;" horiz-adv-x="1169" d="M188 0v1425h861v-149h-705v-481h582v-148h-582v-497h705v-150h-861zM350 1690v184h148v-184h-148zM760 1690v184h149v-184h-149z" />
<glyph unicode="&#xcc;" horiz-adv-x="503" d="M-53 1774l57 141l447 -193l-52 -127zM174 0v1425h158v-1425h-158z" />
<glyph unicode="&#xcd;" horiz-adv-x="503" d="M20 1731l447 194l55 -143l-450 -176zM174 0v1425h158v-1425h-158z" />
<glyph unicode="&#xce;" horiz-adv-x="503" d="M-88 1636l272 277h138l272 -277h-178l-162 154l-160 -154h-182zM174 0v1425h158v-1425h-158z" />
<glyph unicode="&#xcf;" horiz-adv-x="503" d="M-31 1679v185h150v-185h-150zM174 0v1425h158v-1425h-158zM393 1679v185h148v-185h-148z" />
<glyph unicode="&#xd0;" horiz-adv-x="1312" d="M45 627v149h139v649h506q289 0 406 -180q119 -184 118 -510q0 -163 -24 -289q-25 -125 -80 -229q-55 -102 -162 -160q-109 -57 -258 -57h-506v627h-139zM340 150h350q360 0 361 585q0 125 -15 211q-16 94 -55 170q-43 82 -111 119q-76 41 -180 41h-350v-500h311v-149 h-311v-477z" />
<glyph unicode="&#xd1;" horiz-adv-x="1404" d="M174 0v1425h283l565 -1241h47v1241h156v-1425h-277l-571 1241h-45v-1241h-158zM358 1794q104 111 189 111q53 0 164 -50q115 -51 137 -51q47 0 143 82l35 -119q-96 -104 -176 -104q-51 0 -161.5 51t-141.5 51q-49 0 -152 -88z" />
<glyph unicode="&#xd2;" horiz-adv-x="1341" d="M111 705q0 373 125 559q121 182 436 182q313 0 436 -182.5t123 -558.5q0 -379 -121 -553q-119 -172 -438 -172q-315 0 -438 174t-123 551zM274 704.5q0 -305.5 80 -440.5t318 -135q236 0 315 131q82 135 82 445q0 301 -84 446t-313.5 145t-313.5 -143t-84 -448.5z M403 1774l58 141l446 -193l-51 -127z" />
<glyph unicode="&#xd3;" horiz-adv-x="1341" d="M111 705q0 373 125 559q121 182 436 182q313 0 436 -182.5t123 -558.5q0 -379 -121 -553q-119 -172 -438 -172q-315 0 -438 174t-123 551zM274 704.5q0 -305.5 80 -440.5t318 -135q236 0 315 131q82 135 82 445q0 301 -84 446t-313.5 145t-313.5 -143t-84 -448.5z M410 1751l446 195l55 -144l-450 -176z" />
<glyph unicode="&#xd4;" horiz-adv-x="1341" d="M111 705q0 373 125 559q121 182 436 182q313 0 436 -182.5t123 -558.5q0 -379 -121 -553q-119 -172 -438 -172q-315 0 -438 174t-123 551zM274 704.5q0 -305.5 80 -440.5t318 -135q236 0 315 131q82 135 82 445q0 301 -84 446t-313.5 145t-313.5 -143t-84 -448.5z M354 1622l256 303h123l258 -303h-170l-147 172l-150 -172h-170z" />
<glyph unicode="&#xd5;" horiz-adv-x="1341" d="M111 705q0 369 125 557q123 184 436 184q315 0 438 -182.5t123 -558.5q0 -381 -123 -553t-438.5 -172t-438 176t-122.5 549zM274 704.5q0 -305.5 80 -440.5t318 -135q236 0 315 131q82 135 82 445q0 303 -84 448q-82 143 -313 143q-229 0 -313.5 -143t-84.5 -448.5z M330 1794q104 111 188 111q53 0 164 -50q115 -51 137 -51q47 0 144 82l34 -119q-96 -104 -176 -104q-51 0 -161.5 51t-141.5 51q-51 0 -151 -88z" />
<glyph unicode="&#xd6;" horiz-adv-x="1341" d="M111 705q0 369 125 557q123 184 436 184q315 0 438 -182.5t123 -558.5q0 -381 -123 -553t-438.5 -172t-438 176t-122.5 549zM274 704.5q0 -305.5 80 -440.5t318 -135q236 0 315 131q82 135 82 445q0 303 -84 448q-82 143 -313 143q-229 0 -313.5 -143t-84.5 -448.5z M385 1690v184h147v-184h-147zM797 1690v184h147v-184h-147z" />
<glyph unicode="&#xd7;" horiz-adv-x="1456" d="M373 150l389 401l-385 399l102 99l383 -396l385 396l105 -99l-387 -399l389 -401l-103 -99l-389 398l-387 -398z" />
<glyph unicode="&#xd8;" horiz-adv-x="1331" d="M106 705q0 375 123 559q121 182 439 182q139 0 247 -39l109 233l143 -55l-120 -258q180 -162 180 -622q0 -379 -121 -553q-119 -172 -438 -172q-125 0 -236 32l-119 -254l-139 62l123 262q-191 152 -191 623zM270 705q0 -346 101 -465l477 1024q-68 33 -180 32 q-229 0 -313.5 -143t-84.5 -448zM498 154q72 -25 170 -25q238 0 317 131q80 133 80 445q0 334 -94 460z" />
<glyph unicode="&#xd9;" horiz-adv-x="1308" d="M160 430v995h157v-995q0 -297 332 -297q169 0 258 68q88 68 88 229v995h156v-995q0 -233 -127 -342q-125 -106 -375 -106q-242 0 -366 106q-123 104 -123 342zM264 1774l58 141l446 -193l-51 -127z" />
<glyph unicode="&#xda;" horiz-adv-x="1312" d="M164 430v995h158v-995q0 -297 331 -297q169 0 258 68q88 68 88 229v995h156v-995q0 -233 -127 -342q-125 -106 -375 -106q-242 0 -366 106q-123 104 -123 342zM399 1751l447 195l55 -144l-450 -176z" />
<glyph unicode="&#xdb;" horiz-adv-x="1312" d="M164 430v995h158v-995q0 -297 331 -297q169 0 258 68q88 68 88 229v995h156v-995q0 -233 -127 -342q-125 -106 -375 -106q-242 0 -366 106q-123 104 -123 342zM344 1622l256 303h123l258 -303h-170l-147 172l-150 -172h-170z" />
<glyph unicode="&#xdc;" horiz-adv-x="1312" d="M164 430v995h158v-995q0 -297 331 -297q169 0 258 68q88 68 88 229v995h156v-995q0 -233 -127 -342q-125 -106 -375 -106q-242 0 -366 106q-123 104 -123 342zM418 1690v184h147v-184h-147zM827 1690v184h150v-184h-150z" />
<glyph unicode="&#xdd;" horiz-adv-x="1103" d="M27 1425h176l352 -639l348 639h176l-444 -815v-610h-158v612zM279 1751l446 195l55 -144l-450 -176z" />
<glyph unicode="&#xde;" horiz-adv-x="1187" d="M145 0v1425h156v-229h363q231 0 341.5 -110.5t110.5 -346.5q0 -240 -112 -364q-115 -127 -340 -127h-363v-248h-156zM301 399h361q295 0 294 340q0 156 -71 232q-70 74 -223 73h-361v-645z" />
<glyph unicode="&#xdf;" horiz-adv-x="1236" d="M178 0v1116q0 205 96.5 289t307.5 84q215 0 307 -68q90 -66 90 -225q0 -199 -156 -262q-88 -37 -108 -51q-25 -18 -25 -47q0 -27 31 -52q37 -29 149 -90q162 -88 213 -135q53 -49 54 -129q0 -252 -101 -350t-387 -98q-31 0 -80 6q-39 4 -80 12l-32 6l8 127q133 -8 184 -8 q201 0 264.5 63.5t63.5 225.5q0 31 -47 67q-37 29 -176 103q-137 68 -180.5 117t-43.5 122.5t39 114.5q39 43 131 82q76 31 97 67q23 39 22 101q0 90 -53 127q-49 35 -184 35q-131 0 -189 -52q-59 -53 -59 -200v-1098h-156z" />
<glyph unicode="&#xe0;" horiz-adv-x="1073" d="M84 293q0 147 76 217q78 72 235 86l324 31v84q0 186 -178 186q-158 0 -391 -27l-7 134q252 41 404 40q162 0 244 -81q80 -80 79 -252v-504q2 -78 119 -94l-6 -133q-164 0 -242 77q-186 -78 -379 -77q-133 0 -206 81q-72 80 -72 232zM240 297q0 -86 36.5 -135t108.5 -49 q76 0 154 14q63 12 131 33l49 14v328l-303 -25q-176 -16 -176 -180zM240 1399l53 135l446 -193l-49 -118z" />
<glyph unicode="&#xe1;" horiz-adv-x="1073" d="M84 293q0 147 76 217q78 72 235 86l324 31v84q0 186 -178 186q-158 0 -391 -27l-7 134q252 41 404 40q162 0 244 -81q80 -80 79 -252v-504q2 -78 119 -94l-6 -133q-164 0 -242 77q-186 -78 -379 -77q-133 0 -206 81q-72 80 -72 232zM240 297q0 -86 36.5 -135t108.5 -49 q76 0 154 14q63 12 131 33l49 14v328l-303 -25q-176 -16 -176 -180zM244 1341l446 195l55 -143l-450 -176z" />
<glyph unicode="&#xe2;" horiz-adv-x="1073" d="M84 293q0 147 76 217q78 72 235 86l324 31v84q0 186 -178 186q-158 0 -391 -27l-7 134q252 41 404 40q162 0 244 -81q80 -80 79 -252v-504q2 -78 119 -94l-6 -133q-164 0 -242 77q-186 -78 -379 -77q-133 0 -206 81q-72 80 -72 232zM184 1212l256 304h123l258 -304h-170 l-147 172l-150 -172h-170zM240 297q0 -86 36.5 -135t108.5 -49q76 0 154 14q63 12 131 33l49 14v328l-303 -25q-176 -16 -176 -180z" />
<glyph unicode="&#xe3;" horiz-adv-x="1073" d="M84 293q0 147 76 217t237 86l322 31v84q0 186 -178 186q-158 0 -391 -27l-7 134q252 41 406 40q162 0 244 -81q80 -80 79 -252v-504q2 -78 117 -94l-4 -133q-166 0 -244 77q-184 -78 -379 -77q-133 0 -206 81q-72 80 -72 232zM160 1384q104 111 188 111q53 0 164 -49 q115 -51 137 -51q47 0 144 82l34 -119q-94 -104 -176 -105q-51 0 -161.5 51.5t-141.5 51.5q-51 0 -151 -88zM242 297q0 -86 36.5 -135t108.5 -49q74 0 152 14q63 12 131 33l49 14v328l-303 -25q-174 -14 -174 -180z" />
<glyph unicode="&#xe4;" horiz-adv-x="1073" d="M84 293q0 147 76 217t237 86l322 31v84q0 186 -178 186q-158 0 -391 -27l-7 134q252 41 406 40q162 0 244 -81q80 -80 79 -252v-504q2 -78 117 -94l-4 -133q-166 0 -244 77q-184 -78 -379 -77q-133 0 -206 81q-72 80 -72 232zM236 1280v184h147v-184h-147zM242 297 q0 -86 36.5 -135t108.5 -49q74 0 152 14q63 12 131 33l49 14v328l-303 -25q-174 -14 -174 -180zM645 1280v184h150v-184h-150z" />
<glyph unicode="&#xe5;" horiz-adv-x="1073" d="M84 293q0 147 76 217q78 72 235 86l324 31v84q0 186 -178 186q-158 0 -391 -27l-7 134q252 41 404 40q162 0 244 -81q80 -80 79 -252v-504q2 -78 119 -94l-6 -133q-164 0 -242 77q-186 -78 -379 -77q-133 0 -206 81q-72 80 -72 232zM240 297q0 -86 36.5 -135t108.5 -49 q76 0 154 14q63 12 131 33l49 14v328l-303 -25q-176 -16 -176 -180zM311 1321q0 90 61.5 151.5t151.5 61.5q88 0 149.5 -61.5t61.5 -151.5t-61.5 -151.5t-149.5 -61.5q-90 0 -151.5 61.5t-61.5 151.5zM424 1321q0 -41 29 -74q27 -31 71.5 -30.5t71.5 30.5q29 33 29 74 q0 39 -29 72q-27 31 -72 30.5t-71 -30.5q-29 -33 -29 -72z" />
<glyph unicode="&#xe6;" horiz-adv-x="1693" d="M111 293q0 166 82 227q82 59 286 82l264 25v84q0 186 -176 186q-100 0 -166 -4q-152 -10 -159 -10l-66 -6l-4 137q242 31 401 30q209 0 277 -149q98 150 319 149q205 0 309.5 -116.5t104.5 -362.5l-8 -119h-678q0 -168 61.5 -247.5t208.5 -79.5q68 0 160 6q25 2 156 8 l59 4l4 -125q-223 -33 -397 -32q-206 0 -301 110l-66 -29q-188 -82 -393 -81q-135 0 -206.5 81.5t-71.5 231.5zM266 297q0 -184 146 -184q95 0 215 30q127 33 151 45q-37 104 -37 314l-301 -25q-92 -10 -133 -51t-41 -129zM897 571h533q0 181 -62 258q-61 78 -198.5 78 t-205 -80t-67.5 -256z" />
<glyph unicode="&#xe7;" horiz-adv-x="892" d="M102 530q0 281 97 396q100 119 327 118q47 0 111 -8q27 -4 67.5 -8t51.5 -6l49 -8l-4 -133q-162 18 -242 18q-174 0 -237 -82q-61 -80 -62 -287q0 -231 59.5 -319t239.5 -88l244 18l6 -133q-188 -29 -274 -28v-80q123 0 176 -33t53 -127q0 -184 -193 -184q-29 0 -86 4 q-45 4 -65 6l-25 4l6 98q80 -6 136 -6q90 0 90 78q0 70 -90 70h-86v174q-195 14 -273 139q-76 120 -76 407z" />
<glyph unicode="&#xe8;" horiz-adv-x="1028" d="M100 506q0 539 430 538q207 0 310 -116q102 -119 102 -363l-8 -119h-678q4 -170 63 -247q61 -80 207 -80q68 0 162 6q35 2 154 8l59 4l4 -125q-223 -33 -397 -32q-223 0 -315.5 129t-92.5 397zM227 1384l54 136l446 -193l-49 -119zM256 571h532q0 181 -61 258 q-61 78 -197 78q-274 0 -274 -336z" />
<glyph unicode="&#xe9;" horiz-adv-x="1028" d="M100 506q0 539 430 538q207 0 310 -116q102 -119 102 -363l-8 -119h-678q4 -170 63 -247q61 -80 207 -80q68 0 162 6q35 2 154 8l59 4l4 -125q-223 -33 -397 -32q-223 0 -315.5 129t-92.5 397zM256 571h532q0 181 -61 258q-61 78 -197 78q-274 0 -274 -336zM305 1341 l447 195l55 -143l-451 -176z" />
<glyph unicode="&#xea;" horiz-adv-x="1028" d="M100 506q0 539 430 538q207 0 310 -116q102 -119 102 -363l-8 -119h-678q4 -170 63 -247q61 -80 207 -80q68 0 162 6q35 2 154 8l59 4l4 -125q-223 -33 -397 -32q-223 0 -315.5 129t-92.5 397zM225 1212l256 304h123l258 -304h-170l-147 172l-150 -172h-170zM256 571h532 q0 181 -61 258q-61 78 -197 78q-274 0 -274 -336z" />
<glyph unicode="&#xeb;" horiz-adv-x="1028" d="M100 506q0 539 430 538q207 0 310 -116q102 -119 102 -363l-8 -119h-678q4 -170 63 -247q61 -80 207 -80q68 0 162 6q35 2 154 8l59 4l4 -125q-223 -33 -397 -32q-223 0 -315.5 129t-92.5 397zM246 1280v184h149v-184h-149zM256 571h532q0 181 -61 258q-61 78 -197 78 q-274 0 -274 -336zM657 1280v184h148v-184h-148z" />
<glyph unicode="&#xec;" horiz-adv-x="532" d="M10 1399l53 135l447 -193l-49 -118zM195 0v1024h151v-1024h-151z" />
<glyph unicode="&#xed;" horiz-adv-x="532" d="M70 1341l446 195l55 -143l-450 -176zM195 0v1024h151v-1024h-151z" />
<glyph unicode="&#xee;" horiz-adv-x="538" d="M-51 1212l256 304h123l258 -304h-170l-148 172l-149 -172h-170zM195 0v1024h151v-1024h-151z" />
<glyph unicode="&#xef;" horiz-adv-x="532" d="M-16 1280v184h147v-184h-147zM195 0v1024h151v-1024h-151zM393 1280v184h148v-184h-148z" />
<glyph unicode="&#xf0;" d="M82 455q0 195 117 311q115 115 313 115q70 0 152 -19q90 -20 135 -37l49 -16q-12 272 -301 420l-228 -164l-67 96l170 123q-96 35 -229 68l30 129q209 -43 334 -99l203 146l69 -96l-153 -111q336 -201 336 -600q0 -395 -110.5 -567t-362.5 -172q-215 0 -336 122 q-121 126 -121 351zM244 455q0 -156 75 -244q74 -86 220 -86q166 0 237.5 123t73.5 422q-184 74 -330 73q-125 0 -200.5 -81.5t-75.5 -206.5z" />
<glyph unicode="&#xf1;" horiz-adv-x="1171" d="M186 0v1024h154v-68q170 88 317 88q203 0 275 -112q70 -109 69 -400v-532h-151v530q0 211 -41 293q-39 80 -176 80q-139 0 -293 -76v-827h-154zM268 1384q104 111 189 111q53 0 164 -49q115 -51 137 -51q47 0 143 82l35 -119q-96 -104 -176 -105q-51 0 -162 51.5 t-141 51.5q-49 0 -152 -88z" />
<glyph unicode="&#xf2;" horiz-adv-x="1079" d="M102 526q0 272 101 394q102 125 340 124q227 0 331.5 -129t104.5 -393q0 -285 -94 -411q-96 -131 -342 -131q-250 0 -346 126q-95 125 -95 420zM260 526q0 -230 55 -319q55 -90 228 -90q170 0 225 92q53 88 53 313q0 203 -65.5 293t-212.5 90q-162 0 -224 -84 q-59 -80 -59 -295zM287 1399l53 135l446 -193l-49 -118z" />
<glyph unicode="&#xf3;" horiz-adv-x="1079" d="M102 526q0 272 101 394q102 125 340 124q227 0 331.5 -129t104.5 -393q0 -285 -94 -411q-96 -131 -342 -131q-250 0 -346 126q-95 125 -95 420zM260 526q0 -230 55 -319q55 -90 228 -90q170 0 225 92q53 88 53 313q0 203 -65.5 293t-212.5 90q-162 0 -224 -84 q-59 -80 -59 -295zM299 1341l446 195l56 -143l-451 -176z" />
<glyph unicode="&#xf4;" horiz-adv-x="1079" d="M102 526q0 272 101 394q102 125 340 124q227 0 331.5 -129t104.5 -393q0 -285 -94 -411q-96 -131 -342 -131q-250 0 -346 126q-95 125 -95 420zM217 1212l256 304h123l258 -304h-170l-147 172l-150 -172h-170zM260 526q0 -230 55 -319q55 -90 228 -90q170 0 225 92 q53 88 53 313q0 203 -65.5 293t-212.5 90q-162 0 -224 -84q-59 -80 -59 -295z" />
<glyph unicode="&#xf5;" horiz-adv-x="1079" d="M102 526q0 272 101 394q102 125 340 124q227 0 331.5 -129t104.5 -393q0 -285 -94 -411q-96 -131 -342 -131q-250 0 -346 126q-95 125 -95 420zM203 1384q104 111 188 111q53 0 164 -49q115 -51 137 -51q43 0 144 82l34 -119q-96 -104 -176 -105q-51 0 -161.5 51.5 t-141.5 51.5q-51 0 -151 -88zM260 526q0 -230 55 -319q55 -90 228 -90q170 0 225 92q53 88 53 313q0 203 -65.5 293t-212.5 90q-162 0 -224 -84q-59 -80 -59 -295z" />
<glyph unicode="&#xf6;" horiz-adv-x="1079" d="M102 526q0 272 101 394q102 125 340 124q227 0 331.5 -129t104.5 -393q0 -285 -94 -411q-96 -131 -342 -131q-250 0 -346 126q-95 125 -95 420zM254 1280v184h149v-184h-149zM260 526q0 -230 55 -319q55 -90 228 -90q170 0 225 92q53 88 53 313q0 203 -65.5 293 t-212.5 90q-162 0 -224 -84q-59 -80 -59 -295zM666 1280v184h147v-184h-147z" />
<glyph unicode="&#xf7;" d="M205 739v154h26v86h463v-86h33v-154h-522zM387 209v207h158v-207h-158z" />
<glyph unicode="&#xf8;" horiz-adv-x="1079" d="M102 526q0 272 101 394q102 125 340 124q74 0 149 -16l86 213l105 -39l-90 -215q186 -106 186 -465q0 -285 -94 -411q-96 -131 -342 -131q-82 0 -158 16l-90 -225l-102 36l90 226q-96 53 -140 174q-41 114 -41 319zM260 526q0 -145 18.5 -229t67.5 -127l293 723 q-43 12 -96 12q-162 0 -224 -84q-59 -80 -59 -295zM436 127q45 -10 107 -10q170 0 225 92q53 88 53 313q0 240 -92 322z" />
<glyph unicode="&#xf9;" horiz-adv-x="1142" d="M164 489v535h151v-532q0 -223 39 -299t178 -76q51 0 130 20q71 18 110 37l41 19v831h152v-1024h-152v66q-160 -86 -303 -86q-209 0 -277 108q-69 110 -69 401zM252 1393l59 141l447 -195l-58 -133z" />
<glyph unicode="&#xfa;" horiz-adv-x="1142" d="M164 489v535h151v-532q0 -223 39 -299t178 -76q51 0 130 20q71 18 110 37l41 19v831h152v-1024h-152v66q-160 -86 -303 -86q-209 0 -277 108q-69 110 -69 401zM326 1341l446 195l55 -143l-450 -176z" />
<glyph unicode="&#xfb;" horiz-adv-x="1142" d="M164 489v535h151v-532q0 -223 39 -299t178 -76q51 0 130 20q71 18 110 37l41 19v831h152v-1024h-152v66q-160 -86 -303 -86q-209 0 -277 108q-69 110 -69 401zM229 1212l256 304h123l258 -304h-170l-147 172l-150 -172h-170z" />
<glyph unicode="&#xfc;" horiz-adv-x="1142" d="M164 489v535h151v-532q0 -223 39 -299t178 -76q51 0 130 20q71 18 110 37l41 19v831h152v-1024h-152v66q-160 -86 -303 -86q-209 0 -277 108q-69 110 -69 401zM301 1280v184h148v-184h-148zM711 1280v184h149v-184h-149z" />
<glyph unicode="&#xfd;" horiz-adv-x="980" d="M35 1024h153l256 -877h70l256 877h154l-426 -1479h-154l131 455h-149zM283 1341l446 195l55 -143l-450 -176z" />
<glyph unicode="&#xfe;" horiz-adv-x="1099" d="M233 -455v1925h152v-493q157 68 301 67q207 0 291 -118.5t84 -395.5q0 -305 -104.5 -427.5t-381.5 -122.5q-84 0 -190 10v-445h-152zM385 129q135 -12 190 -12q200 0 265 92q63 90 63 317q0 205 -49 291t-182 86q-61 0 -133 -12q-70 -12 -113 -29l-41 -14v-719z" />
<glyph unicode="&#xff;" horiz-adv-x="985" d="M49 1024h154l256 -877h69l256 877h154l-426 -1479h-154l131 455h-149zM213 1280v184h147v-184h-147zM623 1280v184h149v-184h-149z" />
<glyph unicode="&#x100;" horiz-adv-x="1234" d="M59 0l390 1425h346l383 -1423h-156l-109 356h-594l-102 -358h-158zM287 1671v135h637v-135h-637zM356 510h525l-211 770h-103z" />
<glyph unicode="&#x101;" horiz-adv-x="1067" d="M100 293q0 147 76 217q78 72 236 86l323 31v84q0 186 -178 186q-158 0 -391 -27l-6 134q252 41 403 40q162 0 244 -81q80 -80 80 -252v-504q2 -78 119 -94l-7 -133q-168 0 -241 77q-186 -78 -379 -77q-133 0 -207 81q-72 80 -72 232zM229 1298v136h596v-136h-596z M256 297q0 -84 39 -135q37 -49 106 -49q76 0 154 14q63 12 131 33l49 14v328l-303 -25q-176 -16 -176 -180z" />
<glyph unicode="&#x102;" horiz-adv-x="1234" d="M59 0l390 1425h346l383 -1423h-156l-109 356h-594l-102 -358h-158zM297 1896h156q4 -66 49 -102q46 -37 116.5 -37t116.5 37q45 37 49 102h158q-6 -123 -94 -196q-90 -74 -230 -74q-143 0 -229 73.5t-92 196.5zM356 510h525l-211 770h-103z" />
<glyph unicode="&#x103;" horiz-adv-x="1067" d="M100 293q0 147 76 217q78 72 236 86l323 31v84q0 186 -178 186q-158 0 -391 -27l-6 134q252 41 403 40q162 0 244 -81q80 -80 80 -252v-504q2 -78 119 -94l-7 -133q-168 0 -241 77q-186 -78 -379 -77q-133 0 -207 81q-72 80 -72 232zM207 1501h155q2 -70 50 -112 q43 -41 122.5 -41t124.5 41q41 37 48 112h155q-6 -131 -92 -211t-235.5 -80t-235.5 80t-92 211zM256 297q0 -84 39 -135q37 -49 106 -49q76 0 154 14q63 12 131 33l49 14v328l-303 -25q-176 -16 -176 -180z" />
<glyph unicode="&#x104;" horiz-adv-x="1234" d="M59 0l390 1425h346l383 -1423h-9q-141 -137 -141 -207q0 -35 19 -59q16 -23 55 -23l100 11l15 -127q-92 -18 -162 -19q-86 0 -135 47q-53 49 -54 131q0 115 156 246l-109 356h-594l-102 -358h-158zM356 510h525l-211 770h-103z" />
<glyph unicode="&#x105;" horiz-adv-x="1067" d="M100 293q0 147 76 217q78 72 236 86l323 31v84q0 186 -178 186q-158 0 -391 -27l-6 134q252 41 403 40q162 0 244 -81q80 -80 80 -252v-504q2 -78 119 -94l-7 -133q-49 0 -61 2q-121 -121 -121 -187q0 -35 19 -59q16 -23 55 -23l100 11l15 -127q-92 -18 -162 -19 q-86 0 -135 47q-53 49 -54 131q0 72 58 144q55 70 106 110q-37 16 -61 47q-186 -78 -379 -77q-133 0 -207 81q-72 80 -72 232zM256 297q0 -84 39 -135q37 -49 106 -49q76 0 154 14q63 12 131 33l49 14v328l-303 -25q-176 -16 -176 -180z" />
<glyph unicode="&#x106;" horiz-adv-x="1091" d="M104 709q0 389 109 561q111 176 410 176q82 0 180 -12.5t153 -24.5l58 -10l-8 -142q-231 35 -367 35q-225 0 -299 -133q-74 -131 -74 -450q0 -311 74 -445q74 -131 303 -131q49 0 148 10q92 10 151 19l64 8l6 -143q-231 -47 -389 -47q-154 0 -261 47q-104 47 -159 143 q-57 100 -78 225q-21 121 -21 314zM344 1731l447 194l55 -143l-451 -176z" />
<glyph unicode="&#x107;" horiz-adv-x="892" d="M102 530q0 281 97 396q100 119 327 118q47 0 111 -8q27 -4 67.5 -8t51.5 -6l49 -8l-4 -133q-162 18 -242 18q-174 0 -237 -82q-61 -80 -62 -287q0 -231 59.5 -319t239.5 -88l244 18l6 -133q-201 -29 -285 -28q-243 0 -331 122q-91 125 -91 428zM242 1341l446 195l55 -143 l-450 -176z" />
<glyph unicode="&#x108;" horiz-adv-x="1091" d="M104 709q0 389 109 561q111 176 410 176q82 0 180 -12.5t153 -24.5l58 -10l-8 -142q-231 35 -367 35q-225 0 -299 -133q-74 -131 -74 -450q0 -311 74 -445q74 -131 303 -131q49 0 148 10q92 10 151 19l64 8l6 -143q-231 -47 -389 -47q-154 0 -261 47q-104 47 -159 143 q-57 100 -78 225q-21 121 -21 314zM279 1630l272 277h137l273 -277h-179l-161 154l-160 -154h-182z" />
<glyph unicode="&#x109;" horiz-adv-x="892" d="M102 530q0 281 97 396q100 119 327 118q47 0 111 -8q27 -4 67.5 -8t51.5 -6l49 -8l-4 -133q-162 18 -242 18q-174 0 -237 -82q-61 -80 -62 -287q0 -231 59.5 -319t239.5 -88l244 18l6 -133q-201 -29 -285 -28q-243 0 -331 122q-91 125 -91 428zM156 1212l256 304h123 l258 -304h-170l-148 172l-149 -172h-170z" />
<glyph unicode="&#x10a;" horiz-adv-x="1091" d="M104 709q0 389 109 561q111 176 410 176q82 0 180 -12.5t153 -24.5l58 -10l-8 -142q-231 35 -367 35q-225 0 -299 -133q-74 -131 -74 -450q0 -311 74 -445q74 -131 303 -131q49 0 148 10q92 10 151 19l64 8l6 -143q-231 -47 -389 -47q-154 0 -261 47q-104 47 -159 143 q-57 100 -78 225q-21 121 -21 314zM518 1675v178h154v-178h-154z" />
<glyph unicode="&#x10b;" horiz-adv-x="892" d="M102 530q0 281 97 396q100 119 327 118q47 0 111 -8q27 -4 67.5 -8t51.5 -6l49 -8l-4 -133q-162 18 -242 18q-174 0 -237 -82q-61 -80 -62 -287q0 -231 59.5 -319t239.5 -88l244 18l6 -133q-201 -29 -285 -28q-243 0 -331 122q-91 125 -91 428zM412 1247v178h153v-178 h-153z" />
<glyph unicode="&#x10c;" horiz-adv-x="1091" d="M104 709q0 389 109 561q111 176 410 176q82 0 180 -12.5t153 -24.5l58 -10l-8 -142q-231 35 -367 35q-225 0 -299 -133q-74 -131 -74 -450q0 -311 74 -445q74 -131 303 -131q49 0 148 10q92 10 151 19l64 8l6 -143q-231 -47 -389 -47q-154 0 -261 47q-104 47 -159 143 q-57 100 -78 225q-21 121 -21 314zM264 1909h182l160 -156l162 156h178l-272 -275h-135z" />
<glyph unicode="&#x10d;" horiz-adv-x="892" d="M102 530q0 281 97 396q100 119 327 118q47 0 111 -8q27 -4 67.5 -8t51.5 -6l49 -8l-4 -133q-162 18 -242 18q-174 0 -237 -82q-61 -80 -62 -287q0 -231 59.5 -319t239.5 -88l244 18l6 -133q-201 -29 -285 -28q-243 0 -331 122q-91 125 -91 428zM172 1516h170l150 -170 l147 170h170l-256 -304h-127z" />
<glyph unicode="&#x10e;" horiz-adv-x="1312" d="M184 0v1425h506q289 0 406 -180q119 -184 118 -510q0 -163 -24 -289q-25 -125 -80 -229q-55 -102 -162 -160q-109 -57 -258 -57h-506zM272 1909h183l159 -156l162 156h178l-272 -275h-135zM340 150h350q360 0 361 585q0 125 -15 211q-16 94 -55 170q-43 82 -111 119 q-76 41 -180 41h-350v-1126z" />
<glyph unicode="&#x10f;" horiz-adv-x="1499" d="M102 508q0 276 99 405q100 131 329 131q106 0 250 -26v416h154v-1434h-154v68q-156 -88 -311 -88q-80 0 -143 22q-57 20 -113 76q-57 57 -84 161.5t-27 268.5zM256 504q0 -119 18 -199q18 -78 56 -115q41 -41 71 -53q39 -16 88 -16q51 0 134 20q70 16 114 37l43 19v686 q-176 23 -241 22q-154 0 -220 -96q-63 -94 -63 -305zM1184 946v479h147v-479h-147z" />
<glyph unicode="&#x110;" horiz-adv-x="1312" d="M45 637v149h139v639h506q289 0 406 -180q119 -184 118 -510q0 -163 -24 -289q-25 -125 -80 -229q-55 -102 -162 -160q-109 -57 -258 -57h-506v637h-139zM340 150h350q360 0 361 585q0 125 -15 211q-16 94 -55 170q-43 82 -111 119q-76 41 -180 41h-350v-490h324v-149 h-324v-487z" />
<glyph unicode="&#x111;" horiz-adv-x="1105" d="M102 508q0 276 99 405q100 131 329 131q106 0 250 -26v256h-395v135h395v25h154v-25h47v-135h-47v-1274h-154v68q-156 -88 -311 -88q-80 0 -143 22q-57 20 -113 76q-57 57 -84 161.5t-27 268.5zM256 504q0 -119 18 -199q18 -78 56 -115q41 -41 71 -53q39 -16 88 -16 q51 0 134 20q70 16 114 37l43 19v686q-176 23 -241 22q-154 0 -220 -96q-63 -94 -63 -305z" />
<glyph unicode="&#x112;" horiz-adv-x="1153" d="M184 0v1425h860v-149h-704v-481h582v-148h-582v-497h704v-150h-860zM291 1679v136h637v-136h-637z" />
<glyph unicode="&#x113;" horiz-adv-x="1036" d="M102 506q0 539 430 538q209 0 310 -116q102 -119 102 -363l-8 -119h-678q4 -172 61 -247q61 -80 209 -80q66 0 162 6q35 2 154 8l59 4l4 -125q-223 -33 -397 -32q-223 0 -315.5 129t-92.5 397zM233 1298v136h596v-136h-596zM258 571h533q0 181 -62 258q-61 78 -197 78 q-274 0 -274 -336z" />
<glyph unicode="&#x114;" horiz-adv-x="1153" d="M184 0v1425h860v-149h-704v-481h582v-148h-582v-497h704v-150h-860zM309 1896h156q2 -63 49 -100q46 -37 116.5 -37t117.5 37t49 100h157q-6 -121 -94 -194q-90 -74 -229 -74q-143 0 -229.5 73.5t-92.5 194.5z" />
<glyph unicode="&#x115;" horiz-adv-x="1036" d="M102 506q0 539 430 538q209 0 310 -116q102 -119 102 -363l-8 -119h-678q4 -172 61 -247q61 -80 209 -80q66 0 162 6q35 2 154 8l59 4l4 -125q-223 -33 -397 -32q-223 0 -315.5 129t-92.5 397zM201 1501h157q2 -68 48 -112q41 -41 122 -41q78 0 125 43q43 41 47 110h158 q-6 -131 -92 -211t-238 -80q-147 0 -233 80q-88 82 -94 211zM258 571h533q0 181 -62 258q-61 78 -197 78q-274 0 -274 -336z" />
<glyph unicode="&#x116;" horiz-adv-x="1153" d="M184 0v1425h860v-149h-704v-481h582v-148h-582v-497h704v-150h-860zM541 1675v178h153v-178h-153z" />
<glyph unicode="&#x117;" horiz-adv-x="1036" d="M102 506q0 539 430 538q209 0 310 -116q102 -119 102 -363l-8 -119h-678q4 -172 61 -247q61 -80 209 -80q66 0 162 6q35 2 154 8l59 4l4 -125q-223 -33 -397 -32q-223 0 -315.5 129t-92.5 397zM258 571h533q0 181 -62 258q-61 78 -197 78q-274 0 -274 -336zM442 1247v178 h154v-178h-154z" />
<glyph unicode="&#x118;" horiz-adv-x="1153" d="M184 0v1425h860v-149h-704v-481h582v-148h-582v-497h704v-150h-51q-139 -139 -139 -205q0 -33 20 -59q16 -23 54 -23l100 11l14 -127q-92 -18 -161 -19q-86 0 -136 47q-53 49 -53 131q0 61 51 131q49 68 101 113h-660z" />
<glyph unicode="&#x119;" horiz-adv-x="1036" d="M102 506q0 539 430 538q209 0 310 -116q102 -119 102 -363l-8 -119h-678q4 -172 61 -247q61 -80 209 -80q66 0 162 6q35 2 154 8l59 4l4 -125q-8 0 -25.5 -3t-27.5 -5q-139 -139 -139 -205q0 -33 20 -59q16 -23 53 -23l101 11l14 -127q-92 -18 -162 -19q-86 0 -135 47 q-53 49 -53 131q0 98 133 228q-106 -8 -176 -8q-223 0 -315.5 129t-92.5 397zM258 571h533q0 181 -62 258q-61 78 -197 78q-274 0 -274 -336z" />
<glyph unicode="&#x11a;" horiz-adv-x="1153" d="M184 0v1425h860v-149h-704v-481h582v-148h-582v-497h704v-150h-860zM301 1923h182l160 -156l162 156h178l-272 -274h-136z" />
<glyph unicode="&#x11b;" horiz-adv-x="1036" d="M102 506q0 539 430 538q209 0 310 -116q102 -119 102 -363l-8 -119h-678q4 -172 61 -247q61 -80 209 -80q66 0 162 6q35 2 154 8l59 4l4 -125q-223 -33 -397 -32q-223 0 -315.5 129t-92.5 397zM201 1516h170l149 -170l148 170h170l-256 -304h-127zM258 571h533 q0 181 -62 258q-61 78 -197 78q-274 0 -274 -336z" />
<glyph unicode="&#x11c;" horiz-adv-x="1243" d="M106 711q0 375 119 555t426 180q74 0 211 -14q121 -12 187 -25l67 -14l-6 -142q-254 43 -440 43q-231 0 -315.5 -137t-84.5 -446q0 -311 82 -445q82 -135 316 -135q49 0 75 2l41 4t37 2q14 2 37 5t31 3l49 9q12 2 23 2v426h-236v143h391v-698q-292 -49 -461 -49 q-309 0 -428 180q-121 182 -121 551zM311 1630l273 277h137l272 -277h-178l-162 154l-159 -154h-183z" />
<glyph unicode="&#x11d;" horiz-adv-x="1058" d="M96 -172q0 83 37 135q41 57 125 119q-55 37 -55 141q0 14 18.5 57.5t32.5 71.5l16 33q-160 74 -159 309q0 350 381 350q94 0 213 -26l299 6v-131h-185q63 -66 64 -199q0 -195 -94.5 -270.5t-303.5 -75.5q-59 0 -100 8q-37 -90 -37 -116q0 -63 39 -78q43 -16 209 -17 q225 0 311 -61t86 -240q0 -334 -456 -333q-246 0 -344 67q-97 66 -97 250zM213 1212l256 304h123l258 -304h-170l-148 172l-149 -172h-170zM248 -160q0 -109 61 -151q59 -41 230 -41q158 0 227 45q72 47 72 145q0 111 -52 142q-53 31 -200 30l-224 10q-68 -51 -90 -86 q-24 -37 -24 -94zM264 694q0 -119 47 -166q49 -49 174 -49q133 0 187 47q57 51 57 168q0 129 -51 172q-55 45 -189 45q-117 0 -172 -49q-53 -47 -53 -168z" />
<glyph unicode="&#x11e;" horiz-adv-x="1243" d="M106 711q0 375 119 555t426 180q74 0 211 -14q121 -12 187 -25l67 -14l-6 -142q-254 43 -440 43q-231 0 -315.5 -137t-84.5 -446q0 -311 82 -445q82 -135 316 -135q49 0 75 2l41 4t37 2q14 2 37 5t31 3l49 9q12 2 23 2v426h-236v143h391v-698q-292 -49 -461 -49 q-309 0 -428 180q-121 182 -121 551zM340 1896h158q4 -66 49 -102q46 -37 116.5 -37t116.5 37q45 37 49 102h156q-6 -123 -92 -196.5t-229 -73.5q-139 0 -230 74q-88 73 -94 196z" />
<glyph unicode="&#x11f;" horiz-adv-x="1058" d="M96 -172q0 83 37 135q41 57 125 119q-55 37 -55 141q0 14 18.5 57.5t32.5 71.5l16 33q-160 74 -159 309q0 350 381 350q94 0 213 -26l299 6v-131h-185q63 -66 64 -199q0 -195 -94.5 -270.5t-303.5 -75.5q-59 0 -100 8q-37 -90 -37 -116q0 -63 39 -78q43 -16 209 -17 q225 0 311 -61t86 -240q0 -334 -456 -333q-246 0 -344 67q-97 66 -97 250zM201 1501h157q2 -70 50 -112q43 -41 122 -41q77 0 123 43t49 110h156q-6 -131 -92 -211t-236 -80q-152 0 -237.5 80t-91.5 211zM248 -160q0 -109 61 -151q59 -41 230 -41q158 0 227 45q72 47 72 145 q0 111 -52 142q-53 31 -200 30l-224 10q-68 -51 -90 -86q-24 -37 -24 -94zM264 694q0 -119 47 -166q49 -49 174 -49q133 0 187 47q57 51 57 168q0 129 -51 172q-55 45 -189 45q-117 0 -172 -49q-53 -47 -53 -168z" />
<glyph unicode="&#x120;" horiz-adv-x="1243" d="M106 711q0 375 119 555t426 180q74 0 211 -14q121 -12 187 -25l67 -14l-6 -142q-254 43 -440 43q-231 0 -315.5 -137t-84.5 -446q0 -311 82 -445q82 -135 316 -135q49 0 75 2l41 4t37 2q14 2 37 5t31 3l49 9q12 2 23 2v426h-236v143h391v-698q-292 -49 -461 -49 q-309 0 -428 180q-121 182 -121 551zM555 1683v179h152v-179h-152z" />
<glyph unicode="&#x121;" horiz-adv-x="1058" d="M96 -172q0 83 37 135q41 57 125 119q-55 37 -55 141q0 14 18.5 57.5t32.5 71.5l16 33q-160 74 -159 309q0 350 381 350q94 0 213 -26l299 6v-131h-185q63 -66 64 -199q0 -195 -94.5 -270.5t-303.5 -75.5q-59 0 -100 8q-37 -90 -37 -116q0 -63 39 -78q43 -16 209 -17 q225 0 311 -61t86 -240q0 -334 -456 -333q-246 0 -344 67q-97 66 -97 250zM248 -160q0 -109 61 -151q59 -41 230 -41q158 0 227 45q72 47 72 145q0 111 -52 142q-53 31 -200 30l-224 10q-68 -51 -90 -86q-24 -37 -24 -94zM264 694q0 -119 47 -166q49 -49 174 -49 q133 0 187 47q57 51 57 168q0 129 -51 172q-55 45 -189 45q-117 0 -172 -49q-53 -47 -53 -168zM453 1247v178h153v-178h-153z" />
<glyph unicode="&#x122;" horiz-adv-x="1243" d="M106 711q0 375 119 555t426 180q74 0 211 -14q121 -12 187 -25l67 -14l-6 -142q-254 43 -440 43q-231 0 -315.5 -137t-84.5 -446q0 -311 82 -445q82 -135 316 -135q49 0 75 2l41 4t37 2q14 2 37 5t31 3l49 9q12 2 23 2v426h-236v143h391v-698q-292 -49 -461 -49 q-309 0 -428 180q-121 182 -121 551zM504 -584l84 424h151l-102 -424h-133z" />
<glyph unicode="&#x123;" horiz-adv-x="1058" d="M96 -172q0 83 37 135q41 57 125 119q-55 37 -55 141q0 14 18.5 57.5t32.5 71.5l16 33q-160 74 -159 309q0 350 381 350q94 0 213 -26l299 6v-131h-185q63 -66 64 -199q0 -195 -94.5 -270.5t-303.5 -75.5q-59 0 -100 8q-37 -90 -37 -116q0 -63 39 -78q43 -16 209 -17 q225 0 311 -61t86 -240q0 -334 -456 -333q-246 0 -344 67q-97 66 -97 250zM248 -160q0 -109 61 -151q59 -41 230 -41q158 0 227 45q72 47 72 145q0 111 -52 142q-53 31 -200 30l-224 10q-68 -51 -90 -86q-24 -37 -24 -94zM264 694q0 -119 47 -166q49 -49 174 -49 q133 0 187 47q57 51 57 168q0 129 -51 172q-55 45 -189 45q-117 0 -172 -49q-53 -47 -53 -168zM387 1206l102 424h134l-84 -424h-152z" />
<glyph unicode="&#x124;" horiz-adv-x="1396" d="M184 0v1425h158v-630h721v630h156v-1425h-156v643h-721v-643h-158zM362 1626l273 277h137l272 -277h-178l-161 154l-160 -154h-183z" />
<glyph unicode="&#x125;" horiz-adv-x="1155" d="M178 0v1495h154v-520q170 70 315 69q205 0 277 -112q70 -109 69 -397v-535h-153v532q0 209 -41 291q-41 80 -174 80q-55 0 -133 -16q-88 -18 -117 -29l-43 -14v-844h-154zM260 1585l256 303h123l258 -303h-170l-147 172l-150 -172h-170z" />
<glyph unicode="&#x126;" horiz-adv-x="1396" d="M33 1040v134h151v251h158v-251h721v251h156v-251h170v-134h-170v-1040h-156v643h-721v-643h-158v1040h-151zM342 795h721v245h-721v-245z" />
<glyph unicode="&#x127;" horiz-adv-x="1155" d="M51 1188v135h127v172h154v-172h315v-135h-315v-213q170 70 315 69q205 0 277 -112q70 -109 69 -397v-535h-153v532q0 209 -41 291q-41 80 -174 80q-55 0 -133 -16q-88 -18 -117 -29l-43 -14v-844h-154v1188h-127z" />
<glyph unicode="&#x128;" horiz-adv-x="503" d="M-100 1767q113 123 198 123q57 0 183 -55q131 -57 149 -57q16 0 57 24q27 16 68 45l31 25l37 -119q-106 -119 -189 -119q-55 0 -178 57.5t-156 57.5q-23 0 -63 -25q-33 -20 -72 -51l-28 -24zM174 0v1425h158v-1425h-158z" />
<glyph unicode="&#x129;" horiz-adv-x="538" d="M-70 1384q104 111 189 111q53 0 164 -49q115 -51 137 -51q43 0 143 82l35 -119q-94 -104 -176 -105q-51 0 -161.5 51.5t-141.5 51.5q-49 0 -152 -88zM195 0v1024h151v-1024h-151z" />
<glyph unicode="&#x12a;" horiz-adv-x="503" d="M-66 1700v135h637v-135h-637zM174 0v1425h158v-1425h-158z" />
<glyph unicode="&#x12b;" horiz-adv-x="538" d="M-27 1298v136h596v-136h-596zM195 0v1024h151v-1024h-151z" />
<glyph unicode="&#x12c;" horiz-adv-x="503" d="M-70 1896h158q4 -66 49 -102q47 -37 115 -37q71 0 117 37q45 37 49 102h157q-6 -123 -94 -196.5t-229 -73.5q-143 0 -229.5 73.5t-92.5 196.5zM174 0v1425h158v-1425h-158z" />
<glyph unicode="&#x12d;" horiz-adv-x="538" d="M-57 1501h155q2 -70 49 -112q43 -41 123 -41q78 0 123 41q47 43 49 112h158q-6 -131 -92 -211t-238 -80q-147 0 -233 80q-88 82 -94 211zM195 0v1024h151v-1024h-151z" />
<glyph unicode="&#x12e;" horiz-adv-x="503" d="M29 -244q0 61 51 131q49 68 100 113h-6v1425h158v-1425h-2q-139 -139 -140 -205q0 -35 19 -59q16 -23 55 -23l101 11l14 -127q-92 -18 -162 -19q-86 0 -135 47q-53 49 -53 131z" />
<glyph unicode="&#x12f;" horiz-adv-x="481" d="M-406 0v1024h152v-1024h-152zM-406 1255v179h152v-179h-152zM14 -244q0 57 41 119q45 68 86 102l43 39l133 -14q-141 -137 -141 -207q0 -35 19 -59q16 -23 55 -23l100 11l15 -127q-92 -18 -162 -19q-86 0 -135 47q-54 49 -54 131z" />
<glyph unicode="&#x130;" horiz-adv-x="503" d="M174 0v1425h158v-1425h-158zM176 1675v178h152v-178h-152z" />
<glyph unicode="&#x131;" horiz-adv-x="532" d="M195 0v1024h151v-1024h-151z" />
<glyph unicode="&#x134;" horiz-adv-x="628" d="M0 1626l272 277h138l272 -277h-178l-162 154l-160 -154h-182zM68 0q147 0 188 39q43 40 43 203v1185h156q0 -59 1 -259.5t1 -342.5v-602q0 -133 -21 -203q-23 -76 -74 -110q-57 -37 -118 -47q-68 -10 -176 -10v147z" />
<glyph unicode="&#x135;" horiz-adv-x="505" d="M-66 -342q158 90 207 156q49 63 49 198v1012h152v-1014q0 -187 -68 -282q-68 -94 -272 -199zM-51 1212l256 304h123l258 -304h-170l-148 172l-149 -172h-170z" />
<glyph unicode="&#x136;" horiz-adv-x="1216" d="M184 0v1425h158v-657l231 8l363 649h182l-405 -712l428 -713h-187l-376 627l-236 -9v-618h-158zM481 -584l84 424h152l-103 -424h-133z" />
<glyph unicode="&#x137;" horiz-adv-x="1015" d="M178 0v1470h154v-858l157 9l306 403h172l-342 -471l348 -553h-174l-307 469l-160 -8v-461h-154zM381 -584l84 424h151l-102 -424h-133z" />
<glyph unicode="&#x139;" horiz-adv-x="1046" d="M184 0v1425h158v-1273h623v-152h-781zM276 1731l447 194l55 -143l-450 -176z" />
<glyph unicode="&#x13a;" horiz-adv-x="493" d="M-2 1759l446 195l56 -144l-451 -176zM172 0v1470h152v-1470h-152z" />
<glyph unicode="&#x13b;" horiz-adv-x="1048" d="M184 0v1425h158v-1273h623v-152h-781zM408 -584l84 424h151l-102 -424h-133z" />
<glyph unicode="&#x13c;" horiz-adv-x="493" d="M84 -584l84 424h151l-102 -424h-133zM172 0v1470h152v-1470h-152z" />
<glyph unicode="&#x13d;" horiz-adv-x="1048" d="M184 0v1425h158v-1273h623v-152h-781zM762 946v479h147v-479h-147z" />
<glyph unicode="&#x13e;" horiz-adv-x="882" d="M172 0v1470h152v-1470h-152zM573 946v479h148v-479h-148z" />
<glyph unicode="&#x141;" horiz-adv-x="1048" d="M-25 582l209 145v698h158v-587l338 237l78 -106l-416 -291v-526h623v-152h-781v567l-131 -92z" />
<glyph unicode="&#x142;" horiz-adv-x="589" d="M4 582l215 149v739h152v-632l151 106l78 -106l-229 -162v-676h-152v571l-137 -96z" />
<glyph unicode="&#x143;" horiz-adv-x="1417" d="M184 0v1425h283l565 -1241h45v1241h158v-1425h-277l-573 1241h-43v-1241h-158zM457 1731l446 194l55 -143l-450 -176z" />
<glyph unicode="&#x144;" horiz-adv-x="1161" d="M178 0v1024h154v-68q170 88 317 88q203 0 275 -112q70 -109 69 -400v-532h-151v530q0 211 -41 293q-39 80 -176 80q-139 0 -293 -76v-827h-154zM332 1341l446 195l56 -143l-451 -176z" />
<glyph unicode="&#x145;" horiz-adv-x="1417" d="M184 0v1425h283l565 -1241h45v1241h158v-1425h-277l-573 1241h-43v-1241h-158zM590 -584l84 424h151l-102 -424h-133z" />
<glyph unicode="&#x146;" horiz-adv-x="1161" d="M178 0v1024h154v-68q170 88 317 88q203 0 275 -112q70 -109 69 -400v-532h-151v530q0 211 -41 293q-39 80 -176 80q-139 0 -293 -76v-827h-154zM451 -584l84 424h151l-102 -424h-133z" />
<glyph unicode="&#x147;" horiz-adv-x="1417" d="M184 0v1425h283l565 -1241h45v1241h158v-1425h-277l-573 1241h-43v-1241h-158zM367 1903h182l160 -156l161 156h179l-273 -275h-135z" />
<glyph unicode="&#x148;" horiz-adv-x="1161" d="M178 0v1024h154v-68q170 88 317 88q203 0 275 -112q70 -109 69 -400v-532h-151v530q0 211 -41 293q-39 80 -176 80q-139 0 -293 -76v-827h-154zM264 1516h170l150 -170l147 170h170l-256 -304h-127z" />
<glyph unicode="&#x14a;" horiz-adv-x="1417" d="M184 0v1425h283l565 -1241h45v1241h158v-1425v-16q0 -131 -21 -201q-23 -78 -75 -113q-57 -39 -115 -47q-68 -10 -178 -10v147q145 0 186 39q45 41 45 201h-119l-573 1241h-43v-1241h-158z" />
<glyph unicode="&#x14b;" horiz-adv-x="1161" d="M178 0v1024h154v-68q174 88 321 88q193 0 269 -118q74 -117 73 -394v-536q0 -193 -63 -283q-63 -92 -266 -198l-66 129q160 92 199 151q43 65 43 197v538q0 207 -41 289q-43 86 -170 86q-61 0 -135 -18q-78 -20 -119 -37l-45 -21v-829h-154z" />
<glyph unicode="&#x14c;" horiz-adv-x="1331" d="M106 705q0 375 123 559q121 182 439 182q313 0 436 -182.5t123 -558.5q0 -379 -121 -553q-119 -172 -438 -172q-317 0 -441 174q-121 172 -121 551zM270 704.5q0 -305.5 80 -440.5t318 -135q236 0 315 131q82 135 82 445q0 301 -84 446t-313.5 145t-313.5 -143 t-84 -448.5zM344 1692v135h637v-135h-637z" />
<glyph unicode="&#x14d;" horiz-adv-x="1079" d="M102 526q0 272 101 394q102 125 340 124q227 0 331.5 -129t104.5 -393q0 -285 -94 -411q-96 -131 -342 -131q-250 0 -346 126q-95 125 -95 420zM242 1298v136h596v-136h-596zM260 526q0 -230 55 -319q55 -90 228 -90q170 0 225 92q53 88 53 313q0 203 -65.5 293 t-212.5 90q-162 0 -224 -84q-59 -80 -59 -295z" />
<glyph unicode="&#x14e;" horiz-adv-x="1331" d="M106 705q0 375 123 559q121 182 439 182q313 0 436 -182.5t123 -558.5q0 -379 -121 -553q-119 -172 -438 -172q-317 0 -441 174q-121 172 -121 551zM270 704.5q0 -305.5 80 -440.5t318 -135q236 0 315 131q82 135 82 445q0 301 -84 446t-313.5 145t-313.5 -143 t-84 -448.5zM344 1896h158q4 -66 49 -102q46 -37 116.5 -37t116.5 37q45 37 50 102h155q-6 -123 -92 -196.5t-229 -73.5q-139 0 -230 74q-88 73 -94 196z" />
<glyph unicode="&#x14f;" horiz-adv-x="1079" d="M102 526q0 272 101 394q102 125 340 124q227 0 331.5 -129t104.5 -393q0 -285 -94 -411q-96 -131 -342 -131q-250 0 -346 126q-95 125 -95 420zM211 1501h158q2 -70 49 -112q43 -41 123 -41q77 0 123 43t49 110h155q-6 -129 -94 -211q-86 -80 -233 -80q-152 0 -238 80 t-92 211zM260 526q0 -230 55 -319q55 -90 228 -90q170 0 225 92q53 88 53 313q0 203 -65.5 293t-212.5 90q-162 0 -224 -84q-59 -80 -59 -295z" />
<glyph unicode="&#x150;" horiz-adv-x="1331" d="M106 705q0 375 123 559q121 182 439 182q313 0 436 -182.5t123 -558.5q0 -379 -121 -553q-119 -172 -438 -172q-317 0 -441 174q-121 172 -121 551zM270 704.5q0 -305.5 80 -440.5t318 -135q236 0 315 131q82 135 82 445q0 301 -84 446t-313.5 145t-313.5 -143 t-84 -448.5zM283 1649l290 270l119 -74l-297 -264zM694 1649l291 268l121 -74l-299 -264z" />
<glyph unicode="&#x151;" horiz-adv-x="1079" d="M102 526q0 272 101 394q102 125 340 124q227 0 331.5 -129t104.5 -393q0 -285 -94 -411q-96 -131 -342 -131q-250 0 -346 126q-95 125 -95 420zM188 1278l297 283l111 -86l-303 -283zM260 526q0 -230 55 -319q55 -90 228 -90q170 0 225 92q53 88 53 313q0 203 -65.5 293 t-212.5 90q-162 0 -224 -84q-59 -80 -59 -295zM584 1278l295 285l112 -88l-303 -283z" />
<glyph unicode="&#x152;" horiz-adv-x="1931" d="M123 707q0 389 119 563q121 176 424 176q168 0 288 -21h848v-151h-692v-469h569v-152h-569v-501h692v-154h-846q-184 -18 -290 -18q-313 0 -428 172q-115 174 -115 555zM287 709q0 -322 78 -447q80 -129 319 -129q113 0 270 14v1127q-215 18 -272 18q-229 0 -313 -133 q-82 -131 -82 -450z" />
<glyph unicode="&#x153;" horiz-adv-x="1792" d="M121 526q0 268 102.5 393t337.5 125q268 0 359 -192q98 193 350 192q209 0 309 -116q102 -119 102 -363l-8 -119h-678q4 -170 64 -247q61 -80 207 -80q66 0 161 6q8 0 154 8l59 4l5 -125q-223 -33 -398 -32q-242 0 -334 170q-84 -170 -352 -170q-250 0 -346 126 q-94 125 -94 420zM279 526q0 -230 55 -319q55 -90 227 -90q170 0 225 92q53 88 54 313q0 203 -65.5 293t-213.5 90q-160 0 -221 -84q-61 -83 -61 -295zM995 571h533q0 181 -62 258q-61 78 -196 78q-275 0 -275 -336z" />
<glyph unicode="&#x154;" horiz-adv-x="1273" d="M184 0v1425h525q233 0 342 -102q111 -104 110 -332q0 -332 -260 -411l273 -580h-175l-256 539h-401v-539h-158zM342 688h369q289 0 288 303q0 147 -71 215q-74 70 -219 70h-367v-588zM387 1731l447 194l55 -143l-451 -176z" />
<glyph unicode="&#x155;" horiz-adv-x="727" d="M139 1341l447 195l55 -143l-451 -176zM178 0v1024h154v-135q154 117 356 155v-159q-78 -14 -176 -51q-74 -29 -133 -64l-47 -27v-743h-154z" />
<glyph unicode="&#x156;" horiz-adv-x="1275" d="M184 0v1425h525q233 0 342 -102q111 -104 110 -332q0 -332 -260 -411l273 -580h-175l-256 539h-401v-539h-158zM342 688h369q289 0 288 303q0 147 -71 215q-74 70 -219 70h-367v-588zM518 -584l84 424h152l-103 -424h-133z" />
<glyph unicode="&#x157;" horiz-adv-x="727" d="M90 -584l84 424h152l-103 -424h-133zM178 0v1024h154v-135q154 117 356 155v-159q-78 -14 -176 -51q-74 -29 -133 -64l-47 -27v-743h-154z" />
<glyph unicode="&#x158;" horiz-adv-x="1273" d="M184 0v1425h525q233 0 342 -102q111 -104 110 -332q0 -332 -260 -411l273 -580h-175l-256 539h-401v-539h-158zM297 1903h182l160 -156l162 156h178l-272 -275h-136zM342 688h369q289 0 288 303q0 147 -71 215q-74 70 -219 70h-367v-588z" />
<glyph unicode="&#x159;" horiz-adv-x="727" d="M72 1516h170l149 -170l148 170h170l-256 -304h-127zM178 0v1024h154v-135q154 117 356 155v-159q-78 -14 -176 -51q-74 -29 -133 -64l-47 -27v-743h-154z" />
<glyph unicode="&#x15a;" horiz-adv-x="1091" d="M90 1067q0 381 467 381q152 0 416 -41l-15 -143q-274 33 -401 32q-309 0 -309 -225q0 -129 71 -178q68 -47 277 -94q229 -53 317 -129q90 -78 91 -258q0 -430 -459 -430q-156 0 -436 43l16 143q283 -35 418 -35q156 0 227 64q74 66 74 209q0 119 -66 165q-70 51 -250 84 q-246 53 -340 133q-98 84 -98 279zM303 1731l447 194l55 -143l-451 -176z" />
<glyph unicode="&#x15b;" horiz-adv-x="999" d="M113 745q0 156 106.5 227.5t261.5 71.5q158 0 371 -38l-4 -134q-221 33 -359 33q-221 0 -221 -153q0 -72 49 -103q51 -33 201 -53q213 -35 291 -94.5t78 -202.5q0 -172 -101 -246q-102 -74 -299 -73q-117 0 -360 38l8 134q240 -35 338 -35q129 0 195 39q63 39 63 137 q0 78 -49 108q-47 31 -209 56q-203 31 -280 88q-80 57 -80 200zM250 1341l446 195l56 -143l-451 -176z" />
<glyph unicode="&#x15c;" horiz-adv-x="1091" d="M90 1067q0 381 467 381q152 0 416 -41l-15 -143q-274 33 -401 32q-309 0 -309 -225q0 -129 71 -178q68 -47 277 -94q229 -53 317 -129q90 -78 91 -258q0 -430 -459 -430q-156 0 -436 43l16 143q283 -35 418 -35q156 0 227 64q74 66 74 209q0 119 -66 165q-70 51 -250 84 q-246 53 -340 133q-98 84 -98 279zM215 1630l272 277h138l272 -277h-178l-162 154l-160 -154h-182z" />
<glyph unicode="&#x15d;" horiz-adv-x="999" d="M113 745q0 156 106.5 227.5t261.5 71.5q158 0 371 -38l-4 -134q-221 33 -359 33q-221 0 -221 -153q0 -72 49 -103q51 -33 201 -53q213 -35 291 -94.5t78 -202.5q0 -172 -101 -246q-102 -74 -299 -73q-117 0 -360 38l8 134q240 -35 338 -35q129 0 195 39q63 39 63 137 q0 78 -49 108q-47 31 -209 56q-203 31 -280 88q-80 57 -80 200zM182 1212l256 304h123l258 -304h-170l-147 172l-150 -172h-170z" />
<glyph unicode="&#x15e;" horiz-adv-x="1091" d="M90 1067q0 381 467 381q152 0 416 -41l-15 -143q-274 33 -401 32q-309 0 -309 -225q0 -129 71 -178q68 -47 277 -94q229 -53 317 -129q90 -78 91 -258q0 -401 -404 -428v-84q121 0 174 -33q55 -35 55 -127q0 -184 -192 -184q-27 0 -84 4l-70 6l-22 4l6 98q80 -6 135 -6 q90 0 90 78q0 70 -90 70h-86v172q-74 4 -174 12q-53 4 -168 20l-65 11l16 143q283 -35 418 -35q156 0 227 64q74 66 74 209q0 119 -66 165q-70 51 -250 84q-246 53 -340 133q-98 84 -98 279z" />
<glyph unicode="&#x15f;" horiz-adv-x="999" d="M113 745q0 156 106.5 227.5t261.5 71.5q141 0 371 -38l-4 -134q-221 33 -359 33q-221 0 -221 -153q0 -72 49 -103q51 -33 201 -53q213 -35 291 -94.5t78 -202.5q0 -166 -92.5 -239.5t-272.5 -79.5v-80q123 0 176.5 -33t53.5 -127q0 -184 -193 -184q-29 0 -86 4 q-45 4 -65 6l-25 4l6 98q80 -6 135 -6q90 0 90 78q0 70 -90 70h-86v172q-61 4 -137 12q-111 12 -127 16l-47 8l8 134q240 -35 338 -35q129 0 195 39q63 39 63 137q0 78 -49 108q-47 31 -209 56q-203 31 -280 88q-80 57 -80 200z" />
<glyph unicode="&#x160;" horiz-adv-x="1091" d="M90 1067q0 381 467 381q152 0 416 -41l-15 -143q-274 33 -401 32q-309 0 -309 -225q0 -129 71 -178q68 -47 277 -94q229 -53 317 -129q90 -78 91 -258q0 -430 -459 -430q-156 0 -436 43l16 143q283 -35 418 -35q156 0 227 64q74 66 74 209q0 119 -66 165q-70 51 -250 84 q-246 53 -340 133q-98 84 -98 279zM219 1909h182l160 -156l162 156h178l-272 -275h-135z" />
<glyph unicode="&#x161;" horiz-adv-x="999" d="M113 745q0 156 106.5 227.5t261.5 71.5q158 0 371 -38l-4 -134q-221 33 -359 33q-221 0 -221 -153q0 -72 49 -103q51 -33 201 -53q213 -35 291 -94.5t78 -202.5q0 -172 -101 -246q-102 -74 -299 -73q-117 0 -360 38l8 134q240 -35 338 -35q129 0 195 39q63 39 63 137 q0 78 -49 108q-47 31 -209 56q-203 31 -280 88q-80 57 -80 200zM199 1516h170l149 -170l148 170h170l-256 -304h-127z" />
<glyph unicode="&#x162;" horiz-adv-x="1005" d="M-8 1274v151h1024v-151h-432v-1274h-156v1274h-436zM385 -584l84 424h152l-103 -424h-133z" />
<glyph unicode="&#x163;" horiz-adv-x="747" d="M55 885v139h146v313h153v-313h324v-139h-324v-477q0 -174 24.5 -229.5t123.5 -55.5l182 10l8 -133q-141 -23 -207 -23q-164 0 -223 78q-61 80 -61 297v533h-146zM252 -584l84 424h151l-102 -424h-133z" />
<glyph unicode="&#x164;" horiz-adv-x="1005" d="M-8 1274v151h1024v-151h-432v-1274h-156v1274h-436zM164 1903h182l160 -156l162 156h178l-273 -275h-135z" />
<glyph unicode="&#x165;" horiz-adv-x="1079" d="M55 885v139h146v313h153v-313h324v-139h-324v-477q0 -174 24.5 -229.5t123.5 -55.5l182 10l8 -133q-141 -23 -207 -23q-164 0 -223 78q-61 80 -61 297v533h-146zM819 946v479h148v-479h-148z" />
<glyph unicode="&#x166;" horiz-adv-x="1005" d="M-8 1274v151h1024v-151h-432v-524h346v-136h-346v-614h-156v614h-326v136h326v524h-436z" />
<glyph unicode="&#x167;" horiz-adv-x="747" d="M55 885v139h146v313h153v-313h324v-139h-324v-281h-153v281h-146zM74 469v135h127v-135h-127zM201 352v117h153v-61q0 -174 24.5 -229.5t123.5 -55.5l182 10l8 -133q-141 -23 -207 -23q-164 0 -223 78q-61 80 -61 297zM354 469v135h291v-135h-291z" />
<glyph unicode="&#x168;" horiz-adv-x="1316" d="M160 430v995h157v-995q0 -297 332 -297q169 0 258 68q88 68 88 229v995h156v-995q0 -233 -127 -342q-125 -106 -375 -106q-242 0 -366 106q-123 104 -123 342zM297 1776q114 123 197 122q51 0 182 -57q127 -55 151 -55q16 0 58 24q47 29 67 48l31 22l37 -119 q-106 -119 -191 -119q-55 0 -178 57.5t-155 57.5q-25 0 -64 -24q-33 -20 -72 -52l-28 -24z" />
<glyph unicode="&#x169;" horiz-adv-x="1142" d="M164 489v535h151v-532q0 -223 39 -299t178 -76q51 0 130 20q71 18 110 37l41 19v831h152v-1024h-152v66q-160 -86 -303 -86q-209 0 -277 108q-69 110 -69 401zM231 1384q104 111 189 111q53 0 164 -49q115 -51 137 -51q47 0 143 82l35 -119q-96 -104 -176 -105 q-51 0 -161.5 51.5t-141.5 51.5q-49 0 -152 -88z" />
<glyph unicode="&#x16a;" horiz-adv-x="1316" d="M160 430v995h157v-995q0 -297 332 -297q169 0 258 68q88 68 88 229v995h156v-995q0 -233 -127 -342q-125 -106 -375 -106q-242 0 -366 106q-123 104 -123 342zM340 1692v135h637v-135h-637z" />
<glyph unicode="&#x16b;" horiz-adv-x="1142" d="M164 489v535h151v-532q0 -223 39 -299t178 -76q51 0 130 20q71 18 110 37l41 19v831h152v-1024h-152v66q-160 -86 -303 -86q-209 0 -277 108q-69 110 -69 401zM274 1298v136h596v-136h-596z" />
<glyph unicode="&#x16c;" horiz-adv-x="1316" d="M160 430v995h157v-995q0 -297 332 -297q169 0 258 68q88 68 88 229v995h156v-995q0 -233 -127 -342q-125 -106 -375 -106q-242 0 -366 106q-123 104 -123 342zM338 1896h156q4 -66 49 -102q46 -37 116.5 -37t116.5 37q45 37 49 102h156q-6 -123 -92 -196.5t-229.5 -73.5 t-229.5 73.5t-92 196.5z" />
<glyph unicode="&#x16d;" horiz-adv-x="1142" d="M164 489v535h151v-532q0 -223 39 -299t178 -76q51 0 130 20q71 18 110 37l41 19v831h152v-1024h-152v66q-160 -86 -303 -86q-209 0 -277 108q-69 110 -69 401zM242 1501h157q2 -70 50 -112q43 -41 122 -41q77 0 123 43t49 110h156q-6 -131 -92 -211t-236 -80 q-152 0 -237.5 80t-91.5 211z" />
<glyph unicode="&#x16e;" horiz-adv-x="1316" d="M160 430v995h157v-995q0 -297 332 -297q169 0 258 68q88 68 88 229v995h156v-995q0 -233 -127 -342q-125 -106 -375 -106q-242 0 -366 106q-123 104 -123 342zM418 1733q0 98 67 157q66 57 174.5 57.5t174.5 -57.5q68 -59 67 -157q0 -101 -67 -160q-66 -57 -174.5 -57 t-174.5 57q-67 58 -67 160zM543 1733q0 -49 30 -76q33 -29 86 -29q55 0 84 27q33 29 33 78t-31 75q-29 27 -86 27q-116 0 -116 -102z" />
<glyph unicode="&#x16f;" horiz-adv-x="1142" d="M164 489v535h151v-532q0 -223 39 -299t178 -76q51 0 130 20q71 18 110 37l41 19v831h152v-1024h-152v66q-160 -86 -303 -86q-209 0 -277 108q-69 110 -69 401zM369 1321q0 90 61.5 151.5t151.5 61.5q88 0 149.5 -61.5t61.5 -151.5q0 -92 -60 -152q-61 -61 -151 -61 t-151.5 61.5t-61.5 151.5zM481 1321q0 -43 31 -73.5t72 -30.5q43 0 69 30q29 33 29 74q0 39 -29 72q-27 31 -69 30q-41 0 -72 -30.5t-31 -71.5z" />
<glyph unicode="&#x170;" horiz-adv-x="1316" d="M160 430v995h157v-995q0 -297 332 -297q169 0 258 68q88 68 88 229v995h156v-995q0 -233 -127 -342q-125 -106 -375 -106q-242 0 -366 106q-123 104 -123 342zM303 1616l291 270l121 -74l-299 -264zM717 1616l289 268l122 -74l-301 -264z" />
<glyph unicode="&#x171;" horiz-adv-x="1142" d="M164 489v535h151v-532q0 -223 39 -299t178 -76q51 0 130 20q71 18 110 37l41 19v831h152v-1024h-152v66q-160 -86 -303 -86q-209 0 -277 108q-69 110 -69 401zM248 1278l297 283l110 -86l-303 -283zM643 1278l295 285l113 -88l-303 -283z" />
<glyph unicode="&#x172;" horiz-adv-x="1316" d="M160 430v995h157v-995q0 -297 332 -297q169 0 258 68q88 68 88 229v995h156v-995q0 -356 -307 -430q-139 -139 -139 -205q0 -33 20 -59q16 -23 53 -23l101 11l14 -127q-92 -18 -162 -19q-86 0 -135 47q-53 49 -53 131q0 94 131 226h-25q-242 0 -366 106 q-123 104 -123 342z" />
<glyph unicode="&#x173;" horiz-adv-x="1142" d="M164 489v535h151v-532q0 -223 39 -299t178 -76q51 0 130 20q71 18 110 37l41 19v831h152v-1024h-4l2 2l-134 14q-2 -2 -7 -6t-9 -8v64q-160 -86 -303 -86q-209 0 -277 108q-69 110 -69 401zM659 -244q0 66 52 131q59 76 102 115v-2h148q-139 -139 -140 -205q0 -35 19 -59 q16 -23 55 -23l100 11l15 -127q-92 -18 -162 -19q-86 0 -135 47q-54 49 -54 131z" />
<glyph unicode="&#x174;" horiz-adv-x="1841" d="M76 1425h162l260 -1267h59l274 1255h179l282 -1255h60l254 1267h161l-303 -1425h-286l-256 1190l-252 -1190h-285zM580 1630l272 277h137l273 -277h-179l-161 154l-160 -154h-182z" />
<glyph unicode="&#x175;" horiz-adv-x="1548" d="M57 1024h154l205 -885h33l245 865h162l244 -865h33l206 885h154l-244 -1024h-260l-215 801l-219 -801h-256zM457 1212l256 304h123l258 -304h-170l-148 172l-149 -172h-170z" />
<glyph unicode="&#x176;" horiz-adv-x="1128" d="M39 1425h176l352 -639l348 639h177l-445 -815v-610h-158v612zM225 1630l273 277h137l272 -277h-178l-162 154l-159 -154h-183z" />
<glyph unicode="&#x177;" horiz-adv-x="985" d="M49 1024h154l256 -877h69l256 877h154l-426 -1479h-154l131 455h-149zM176 1212l256 304h123l258 -304h-170l-147 172l-150 -172h-170z" />
<glyph unicode="&#x178;" horiz-adv-x="1128" d="M39 1425h176l352 -639l348 639h177l-445 -815v-610h-158v612zM276 1679v185h150v-185h-150zM700 1679v185h148v-185h-148z" />
<glyph unicode="&#x179;" horiz-adv-x="1165" d="M123 -2v195l731 1040v41h-731v151h921v-194l-731 -1043v-38h731v-152h-921zM332 1731l446 194l56 -143l-451 -176z" />
<glyph unicode="&#x17a;" horiz-adv-x="978" d="M111 0v139l575 746h-575v139h759v-139l-575 -746h575v-139h-759zM233 1341l447 195l55 -143l-450 -176z" />
<glyph unicode="&#x17b;" horiz-adv-x="1165" d="M123 -2v195l731 1040v41h-731v151h921v-194l-731 -1043v-38h731v-152h-921zM506 1675v178h153v-178h-153z" />
<glyph unicode="&#x17c;" horiz-adv-x="978" d="M111 0v139l575 746h-575v139h759v-139l-575 -746h575v-139h-759zM414 1247v178h153v-178h-153z" />
<glyph unicode="&#x17d;" horiz-adv-x="1165" d="M123 -2v195l731 1040v41h-731v151h921v-194l-731 -1043v-38h731v-152h-921zM248 1909h182l160 -156l162 156h178l-273 -275h-135z" />
<glyph unicode="&#x17e;" horiz-adv-x="978" d="M111 0v139l575 746h-575v139h759v-139l-575 -746h575v-139h-759zM154 1516h170l149 -170l148 170h170l-256 -304h-127z" />
<glyph unicode="&#x192;" d="M143 -487l2 125l15 -3h35q6 0 22 -1t25 -1q12 0 24.5 -1t24.5 -1h41q156 0 155 234v876h-129v140h129v110q0 209 49.5 301t178.5 111q33 4 84 4l170 -12l-2 -129q-152 4 -174 4q-154 0 -154 -236v-153h299v-140h-299v-876q0 -201 -78 -285q-76 -82 -229 -82z" />
<glyph unicode="&#x1fa;" horiz-adv-x="1234" d="M59 0l375 1374q-59 55 -59 150q0 101 67 159q66 57 176 58q109 0 175 -58q68 -58 67 -159q0 -84 -53 -144l371 -1378h-156l-109 356h-594l-102 -358h-158zM356 510h525l-211 770h-103zM360 1923l447 195l55 -144l-450 -176zM500 1524q0 -80 78 -99h79q78 16 78 99 q0 49 -30 75q-33 29 -86.5 29t-86 -28.5t-32.5 -75.5z" />
<glyph unicode="&#x1fb;" horiz-adv-x="1067" d="M100 293q0 147 76 217q78 72 236 86l323 31v84q0 186 -178 186q-158 0 -391 -27l-6 134q252 41 403 40q162 0 244 -81q80 -80 80 -252v-504q2 -78 119 -94l-7 -133q-168 0 -241 77q-186 -78 -379 -77q-133 0 -207 81q-72 80 -72 232zM256 297q0 -84 39 -135 q37 -49 106 -49q76 0 154 14q63 12 131 33l49 14v328l-303 -25q-176 -16 -176 -180zM285 1714l446 195l55 -144l-450 -176zM309 1304.5q0 90.5 61.5 152t151.5 61.5q88 0 149.5 -61.5t61.5 -152t-61.5 -151.5t-149.5 -61q-90 0 -151.5 61t-61.5 151.5zM422 1305 q0 -41 29 -74q29 -31 71.5 -31t71.5 31q29 33 29 74t-29 73q-27 29 -72 29t-71 -29q-29 -32 -29 -73z" />
<glyph unicode="&#x1fc;" horiz-adv-x="1701" d="M82 0l459 1425h1198v-149h-705v-471h582v-150h-582v-505h705v-150h-860v358h-514l-121 -358h-162zM408 510h471v766h-224zM637 1731l446 194l56 -143l-451 -176z" />
<glyph unicode="&#x1fd;" horiz-adv-x="1693" d="M111 293q0 166 82 227q82 59 286 82l264 25v84q0 186 -176 186q-100 0 -166 -4q-152 -10 -159 -10l-66 -6l-4 137q242 31 401 30q209 0 277 -149q98 150 319 149q205 0 309.5 -116.5t104.5 -362.5l-8 -119h-678q0 -168 61.5 -247.5t208.5 -79.5q68 0 160 6q25 2 156 8 l59 4l4 -125q-223 -33 -397 -32q-206 0 -301 110l-66 -29q-188 -82 -393 -81q-135 0 -206.5 81.5t-71.5 231.5zM266 297q0 -184 146 -184q95 0 215 30q127 33 151 45q-37 104 -37 314l-301 -25q-92 -10 -133 -51t-41 -129zM618 1341l447 195l55 -143l-450 -176zM897 571h533 q0 181 -62 258q-61 78 -198.5 78t-205 -80t-67.5 -256z" />
<glyph unicode="&#x1fe;" horiz-adv-x="1341" d="M106 705q0 375 123 559q121 182 439 182q139 0 247 -39l109 233l143 -55l-120 -258q180 -162 180 -622q0 -379 -121 -553q-119 -172 -438 -172q-125 0 -236 32l-119 -254l-139 62l123 262q-191 152 -191 623zM270 705q0 -346 101 -465l477 1024q-68 33 -180 32 q-229 0 -313.5 -143t-84.5 -448zM401 1731l447 194l55 -143l-450 -176zM498 154q72 -25 170 -25q238 0 317 131q80 133 80 445q0 334 -94 460z" />
<glyph unicode="&#x1ff;" horiz-adv-x="1079" d="M102 526q0 272 101 394q102 125 340 124q74 0 149 -16l86 213l105 -39l-90 -215q186 -106 186 -465q0 -285 -94 -411q-96 -131 -342 -131q-82 0 -158 16l-90 -225l-102 36l90 226q-96 53 -140 174q-41 114 -41 319zM260 526q0 -145 18.5 -229t67.5 -127l293 723 q-43 12 -96 12q-162 0 -224 -84q-59 -80 -59 -295zM289 1341l446 195l56 -143l-451 -176zM436 127q45 -10 107 -10q170 0 225 92q53 88 53 313q0 240 -92 322z" />
<glyph unicode="&#x218;" horiz-adv-x="1091" d="M90 1067q0 381 467 381q152 0 416 -41l-15 -143q-274 33 -401 32q-309 0 -309 -225q0 -129 71 -178q68 -47 277 -94q229 -53 317 -129q90 -78 91 -258q0 -430 -459 -430q-156 0 -436 43l16 143q283 -35 418 -35q156 0 227 64q74 66 74 209q0 119 -66 165q-70 51 -250 84 q-246 53 -340 133q-98 84 -98 279zM414 -584l84 424h151l-102 -424h-133z" />
<glyph unicode="&#x219;" horiz-adv-x="999" d="M113 745q0 156 106.5 227.5t261.5 71.5q158 0 371 -38l-4 -134q-221 33 -359 33q-221 0 -221 -153q0 -72 49 -103q51 -33 201 -53q213 -35 291 -94.5t78 -202.5q0 -172 -101 -246q-102 -74 -299 -73q-117 0 -360 38l8 134q240 -35 338 -35q129 0 195 39q63 39 63 137 q0 78 -49 108q-47 31 -209 56q-203 31 -280 88q-80 57 -80 200zM379 -584l84 424h151l-102 -424h-133z" />
<glyph unicode="&#x2c6;" horiz-adv-x="481" d="M-51 1212l256 304h123l258 -304h-170l-148 172l-149 -172h-170z" />
<glyph unicode="&#x2c7;" horiz-adv-x="481" d="M-47 1516h170l149 -170l148 170h170l-256 -304h-127z" />
<glyph unicode="&#x2d8;" horiz-adv-x="481" d="M-59 1501h157q2 -68 47 -112q41 -41 123 -41q80 0 125 43q43 41 47 110h158q-6 -131 -92 -211t-238 -80q-147 0 -233 80q-88 82 -94 211z" />
<glyph unicode="&#x2d9;" horiz-adv-x="481" d="M166 1247v178h151v-178h-151z" />
<glyph unicode="&#x2da;" horiz-adv-x="481" d="M37 1321q0 90 61.5 151.5t151.5 61.5q88 0 149.5 -61.5t61.5 -151.5q0 -92 -60 -152q-61 -61 -151 -61t-151.5 61.5t-61.5 151.5zM150 1321q0 -41 28 -74q27 -31 72 -30.5t72 30.5q29 33 28 74q0 39 -28 72q-27 31 -72 30.5t-72 -30.5q-28 -33 -28 -72z" />
<glyph unicode="&#x2db;" horiz-adv-x="919" d="M385 -244q0 55 43 119q47 72 84 102l43 39l133 -14q-141 -137 -141 -207q0 -33 20 -59q16 -23 54 -23l100 11l14 -127q-92 -18 -162 -19q-86 0 -135 47q-53 49 -53 131z" />
<glyph unicode="&#x2dc;" horiz-adv-x="481" d="M-72 1384q104 111 189 111q53 0 164 -49q115 -51 137 -51q43 0 143 82l35 -119q-95 -104 -178 -105q-51 0 -159.5 51.5t-141.5 51.5q-49 0 -152 -88z" />
<glyph unicode="&#x2dd;" horiz-adv-x="481" d="M-104 1278l297 283l110 -86l-301 -283zM291 1278l297 285l110 -88l-303 -283z" />
<glyph unicode="&#x300;" horiz-adv-x="481" d="M31 1399l53 135l446 -193l-49 -118z" />
<glyph unicode="&#x301;" horiz-adv-x="481" d="M4 1341l447 195l55 -143l-451 -176z" />
<glyph unicode="&#x302;" horiz-adv-x="481" d="M-43 1212l256 304h123l258 -304h-170l-148 172l-149 -172h-170z" />
<glyph unicode="&#x303;" horiz-adv-x="481" d="M-72 1384q104 111 189 111q53 0 164 -49q115 -51 137 -51q43 0 143 82l35 -119q-95 -104 -178 -105q-51 0 -159.5 51.5t-141.5 51.5q-49 0 -152 -88z" />
<glyph unicode="&#x304;" horiz-adv-x="481" d="M-45 1298v136h596v-136h-596z" />
<glyph unicode="&#x306;" horiz-adv-x="481" d="M-59 1501h157q2 -68 47 -112q41 -41 123 -41q80 0 125 43q43 41 47 110h158q-6 -131 -92 -211t-238 -80q-147 0 -233 80q-88 82 -94 211z" />
<glyph unicode="&#x307;" horiz-adv-x="481" d="M166 1247v178h151v-178h-151z" />
<glyph unicode="&#x308;" horiz-adv-x="481" d="M-25 1280v184h148v-184h-148zM385 1280v184h150v-184h-150z" />
<glyph unicode="&#x30a;" horiz-adv-x="481" d="M41 1321q0 90 61.5 151.5t151.5 61.5q88 0 149.5 -61.5t61.5 -151.5q0 -92 -59 -152q-61 -61 -151.5 -61t-152 61.5t-61.5 151.5zM154 1321q0 -41 28 -74q27 -31 72 -30.5t72 30.5q29 33 28 74q0 39 -28 72q-27 31 -72 30.5t-72 -30.5q-28 -33 -28 -72z" />
<glyph unicode="&#x30b;" horiz-adv-x="481" d="M-104 1278l297 283l110 -86l-301 -283zM291 1278l297 285l110 -88l-303 -283z" />
<glyph unicode="&#x30c;" horiz-adv-x="481" d="M-57 1516h170l149 -170l148 170h170l-256 -304h-127z" />
<glyph unicode="&#x312;" horiz-adv-x="346" d="M47 1206l103 424h133l-84 -424h-152z" />
<glyph unicode="&#x315;" horiz-adv-x="307" d="M76 946v479h147v-479h-147z" />
<glyph unicode="&#x326;" horiz-adv-x="346" d="M47 -584l84 424h152l-103 -424h-133z" />
<glyph unicode="&#x327;" horiz-adv-x="1165" d="M508 -430l6 98q80 -6 135 -6q90 0 90 78q0 70 -90 70h-86v192h84v-102q123 0 176.5 -33t53.5 -127q0 -184 -193 -184q-29 0 -86 4q-43 3 -68 6z" />
<glyph unicode="&#x328;" horiz-adv-x="919" d="M385 -244q0 55 43 119q47 72 84 102l43 39l133 -14q-141 -137 -141 -207q0 -33 20 -59q16 -23 54 -23l100 11l14 -127q-92 -18 -162 -19q-86 0 -135 47q-53 49 -53 131z" />
<glyph unicode="&#x394;" d="M82 0v125l326 1251h278l324 -1253l2 -123h-930zM244 143h604l-279 1090h-45z" />
<glyph unicode="&#x2206;" d="M82 0v125l326 1251h278l324 -1253l2 -123h-930zM244 143h604l-279 1090h-45z" />
<glyph unicode="&#x3a9;" d="M61 -18v133h244q-4 4 -11 17l-11 20q-10 16 -52 98q-43 88 -65 145q-33 88 -51 174q-23 106 -23 189q0 324 98.5 469t352.5 145q256 0 354 -145q96 -141 96 -469q0 -141 -55 -301q-63 -182 -107 -252l-53 -90h246v-133h-403v112q2 2 8 12.5t14 26.5q8 14 51 103 q43 90 66 149q33 86 51 170q23 100 23 174q0 267 -56 381q-55 113 -235 113q-82 0 -131 -21q-55 -23 -84 -57q-31 -37 -49 -103q-16 -57 -23 -137q-4 -47 -4 -176q0 -117 53 -280.5t107 -258.5l53 -96v-112h-404z" />
<glyph unicode="&#x2126;" d="M61 -18v133h244q-4 4 -11 17l-11 20q-10 16 -52 98q-43 88 -65 145q-33 88 -51 174q-23 106 -23 189q0 324 98.5 469t352.5 145q256 0 354 -145q96 -141 96 -469q0 -141 -55 -301q-63 -182 -107 -252l-53 -90h246v-133h-403v112q2 2 8 12.5t14 26.5q8 14 51 103 q43 90 66 149q33 86 51 170q23 100 23 174q0 267 -56 381q-55 113 -235 113q-82 0 -131 -21q-55 -23 -84 -57q-31 -37 -49 -103q-16 -57 -23 -137q-4 -47 -4 -176q0 -117 53 -280.5t107 -258.5l53 -96v-112h-404z" />
<glyph unicode="&#x3c0;" d="M8 858v139q66 12 127 17q29 2 129 8l51 2h443q197 0 295 33v-139q-61 -25 -189 -31v-572q0 -117 35 -151q37 -37 143 -37v-135q-203 0 -268 65q-63 63 -63 258v570h-320l-57 -885h-154l58 885q-148 -7 -230 -27z" />
<glyph unicode="&#x1e80;" horiz-adv-x="1841" d="M76 1425h162l260 -1267h59l274 1255h179l282 -1255h60l254 1267h161l-303 -1425h-286l-256 1190l-252 -1190h-285zM676 1774l57 141l447 -193l-52 -127z" />
<glyph unicode="&#x1e81;" horiz-adv-x="1548" d="M57 1024h154l205 -885h33l245 865h162l244 -865h33l206 885h154l-244 -1024h-260l-215 801l-219 -801h-256zM526 1399l54 135l446 -193l-49 -118z" />
<glyph unicode="&#x1e82;" horiz-adv-x="1841" d="M76 1425h162l260 -1267h59l274 1255h179l282 -1255h60l254 1267h161l-303 -1425h-286l-256 1190l-252 -1190h-285zM682 1731l446 194l56 -143l-451 -176z" />
<glyph unicode="&#x1e83;" horiz-adv-x="1548" d="M57 1024h154l205 -885h33l245 865h162l244 -865h33l206 885h154l-244 -1024h-260l-215 801l-219 -801h-256zM524 1341l447 195l55 -143l-451 -176z" />
<glyph unicode="&#x1e84;" horiz-adv-x="1841" d="M76 1425h162l260 -1267h59l274 1255h179l282 -1255h60l254 1267h161l-303 -1425h-286l-256 1190l-252 -1190h-285zM635 1679v185h147v-185h-147zM1057 1679v185h149v-185h-149z" />
<glyph unicode="&#x1e85;" horiz-adv-x="1548" d="M57 1024h154l205 -885h33l245 865h162l244 -865h33l206 885h154l-244 -1024h-260l-215 801l-219 -801h-256zM496 1280v184h147v-184h-147zM905 1280v184h150v-184h-150z" />
<glyph unicode="&#x1eab;" horiz-adv-x="1089" d="M100 293q0 147 76 217q78 72 236 86l323 31v84q0 186 -178 186q-158 0 -391 -27l-6 134q252 41 403 40q162 0 244 -81q80 -80 80 -252v-504q2 -78 119 -94l-7 -133q-168 0 -241 77q-186 -78 -379 -77q-133 0 -207 81q-72 80 -72 232zM147 1638q104 111 189 111 q53 0 164 -49q115 -51 137 -51q43 0 143 82l35 -119q-95 -104 -178 -105q-49 0 -159.5 51.5t-141.5 51.5q-49 0 -152 -88zM182 1151l256 303h123l258 -303h-170l-147 172l-150 -172h-170zM256 297q0 -84 39 -135q37 -49 106 -49q76 0 154 14q63 12 131 33l49 14v328 l-303 -25q-176 -16 -176 -180z" />
<glyph unicode="&#x1eb0;" horiz-adv-x="1234" d="M59 0l390 1425h346l383 -1423h-156l-109 356h-594l-102 -358h-158zM256 2099l53 135l447 -192l-49 -119zM295 1827h158q2 -63 49 -100t114 -37q71 0 117 36q47 37 49 101h158q-6 -121 -94 -194.5t-230 -73.5q-143 0 -229 73.5t-92 194.5zM356 510h525l-211 770h-103z" />
<glyph unicode="&#x1ec5;" horiz-adv-x="1036" d="M102 506q0 539 430 538q209 0 310 -116q102 -119 102 -363l-8 -119h-678q4 -172 61 -247q61 -80 209 -80q66 0 162 6q35 2 154 8l59 4l4 -125q-223 -33 -397 -32q-223 0 -315.5 129t-92.5 397zM180 1638q104 111 189 111q53 0 163 -49q115 -51 138 -51q43 0 143 82 l35 -119q-95 -104 -178 -105q-49 0 -160 51.5t-141 51.5q-49 0 -152 -88zM211 1151l256 303h123l258 -303h-170l-148 172l-149 -172h-170zM258 571h533q0 181 -62 258q-61 78 -197 78q-274 0 -274 -336z" />
<glyph unicode="&#x1ed7;" horiz-adv-x="1091" d="M102 526q0 272 101 394q102 125 340 124q227 0 331.5 -129t104.5 -393q0 -285 -94 -411q-96 -131 -342 -131q-250 0 -346 126q-95 125 -95 420zM168 1638q104 111 188 111q53 0 164 -49q115 -51 137 -51q43 0 144 82l35 -119q-94 -104 -179 -105q-49 0 -159.5 51.5 t-141.5 51.5q-51 0 -151 -88zM211 1151l256 303h123l258 -303h-170l-148 172l-149 -172h-170zM260 526q0 -230 55 -319q55 -90 228 -90q170 0 225 92q53 88 53 313q0 203 -65.5 293t-212.5 90q-162 0 -224 -84q-59 -80 -59 -295z" />
<glyph unicode="&#x1ef2;" horiz-adv-x="1128" d="M39 1425h176l352 -639l348 639h177l-445 -815v-610h-158v612zM332 1774l57 141l447 -193l-52 -127z" />
<glyph unicode="&#x1ef3;" horiz-adv-x="985" d="M49 1024h154l256 -877h69l256 877h154l-426 -1479h-154l131 455h-149zM244 1399l53 135l446 -193l-49 -118z" />
<glyph unicode="&#x1ef8;" horiz-adv-x="1128" d="M39 1425h176l352 -639l348 639h177l-445 -815v-610h-158v612zM221 1786q104 111 189 110q49 0 163 -51q111 -49 138 -49q43 0 143 82l35 -119q-95 -104 -178 -104q-49 0 -160 51t-141 51q-49 0 -152 -88z" />
<glyph unicode="&#x1ef9;" horiz-adv-x="985" d="M49 1024h154l256 -877h69l256 877h154l-426 -1479h-154l131 455h-149zM150 1384q104 111 188 111q53 0 164 -49q115 -51 137 -51q43 0 143 82l35 -119q-95 -104 -178 -105q-51 0 -159.5 51.5t-141.5 51.5q-49 0 -152 -88z" />
<glyph unicode="&#x2000;" horiz-adv-x="1116" />
<glyph unicode="&#x2001;" horiz-adv-x="2232" />
<glyph unicode="&#x2002;" horiz-adv-x="1116" />
<glyph unicode="&#x2003;" horiz-adv-x="2232" />
<glyph unicode="&#x2004;" horiz-adv-x="743" />
<glyph unicode="&#x2005;" horiz-adv-x="557" />
<glyph unicode="&#x2006;" horiz-adv-x="370" />
<glyph unicode="&#x2007;" horiz-adv-x="370" />
<glyph unicode="&#x2008;" horiz-adv-x="278" />
<glyph unicode="&#x2009;" horiz-adv-x="444" />
<glyph unicode="&#x200a;" horiz-adv-x="122" />
<glyph unicode="&#x2010;" horiz-adv-x="899" d="M131 500v151h639v-151h-639z" />
<glyph unicode="&#x2011;" horiz-adv-x="899" d="M131 500v151h639v-151h-639z" />
<glyph unicode="&#x2012;" horiz-adv-x="899" d="M131 500v151h639v-151h-639z" />
<glyph unicode="&#x2013;" horiz-adv-x="1024" d="M0 483v144h1024v-144h-1024z" />
<glyph unicode="&#x2014;" horiz-adv-x="2048" d="M0 483v144h2048v-144h-2048z" />
<glyph unicode="&#x2018;" horiz-adv-x="346" d="M29 1040l106 449h139l-88 -449h-157z" />
<glyph unicode="&#x2019;" horiz-adv-x="346" d="M72 1079l88 449h157l-106 -449h-139z" />
<glyph unicode="&#x201a;" horiz-adv-x="391" d="M55 -211l107 449h139l-88 -449h-158z" />
<glyph unicode="&#x201c;" horiz-adv-x="778" d="M231 1040l107 449h166l-88 -449h-185z" />
<glyph unicode="&#x201d;" horiz-adv-x="790" d="M141 1036l88 449h158l-106 -449h-140zM461 1036l88 449h158l-107 -449h-139z" />
<glyph unicode="&#x201e;" horiz-adv-x="747" d="M55 -211l107 449h139l-88 -449h-158zM420 -211l106 449h140l-88 -449h-158z" />
<glyph unicode="&#x2020;" d="M123 868v152h344v389h151v-389h345v-152h-345v-1024h-151v1024h-344z" />
<glyph unicode="&#x2021;" d="M123 233v148h344v487h-344v152h344v389h151v-389h343v-152h-343v-487h345v-148h-345v-389h-151v389h-344z" />
<glyph unicode="&#x2022;" d="M291 217v586h504v-586h-504z" />
<glyph unicode="&#x2026;" horiz-adv-x="1521" d="M176 0v233h166v-233h-166zM696 0v233h168v-233h-168zM1219 0v233h165v-233h-165z" />
<glyph unicode="&#x202f;" horiz-adv-x="444" />
<glyph unicode="&#x2030;" horiz-adv-x="1703" d="M39 1153q0 283 225 283t225 -283q0 -141 -59 -217q-58 -74 -165.5 -74t-166.5 74q-59 76 -59 217zM162 1153q0 -184 102 -184q53 0 78 45q25 47 25 139t-25 135t-78 43t-77.5 -43t-24.5 -135zM313 8l383 1444l111 -29l-385 -1441zM621 291q0 283 225 282.5t225 -284.5 q0 -139 -59 -215q-58 -74 -166 -74t-166 74q-59 76 -59 217zM745 291q0 -186 101 -187q102 0 102 185q0 92 -24.5 135t-77.5 43q-55 0 -78 -41q-23 -39 -23 -135zM1149 291q0 283 225 282.5t225 -284.5q0 -139 -59 -215q-58 -74 -165.5 -74t-166.5 74q-59 76 -59 217z M1272 291q0 -186 102 -187q57 0 78 46q23 49 23 139q0 92 -23 137q-20 41 -78 41q-55 0 -78 -41q-24 -43 -24 -135z" />
<glyph unicode="&#x2039;" horiz-adv-x="634" d="M102 446v123l387 293v-157l-253 -193l253 -215v-160z" />
<glyph unicode="&#x203a;" horiz-adv-x="634" d="M147 145v160l256 215l-256 193v157l388 -292v-123z" />
<glyph unicode="&#x205f;" horiz-adv-x="557" />
<glyph unicode="&#x2070;" horiz-adv-x="540" d="M31 1298.5q0 184.5 61.5 262t182 77.5t182 -77.5t61.5 -262t-61.5 -262.5t-180.5 -78q-123 0 -184 78t-61 262.5zM166 1298q0 -127 27 -172q29 -47 83 -47q57 0 82 45q25 47 25 174q0 121 -24.5 170.5t-84.5 49.5q-57 0 -81 -50q-27 -53 -27 -170z" />
<glyph unicode="&#x2074;" horiz-adv-x="540" d="M31 1077v113l141 428h143l-149 -420h151l13 180h119v-180h53v-121h-53v-98h-132v98h-286z" />
<glyph unicode="&#x2075;" horiz-adv-x="540" d="M61 989l11 113q117 -23 194 -23q96 0 96 101q0 92 -81 92q-14 0 -52 -8q-27 -6 -41 -15l-14 -8l-102 12l20 365h383v-117h-274l-11 -145q49 31 117 30q193 0 193 -202q0 -109 -60 -164q-61 -57 -159 -57q-43 0 -99 6q-53 6 -88 12z" />
<glyph unicode="&#x2076;" horiz-adv-x="540" d="M41 1290q0 181 61 264q61 84 195 84q34 0 80 -6q74 -10 76 -10l28 -4l-8 -111q-101 12 -172 13q-61 0 -92 -35q-29 -33 -33 -115l19 6l23.5 7.5t25.5 7.5q27 8 53 8q211 0 211 -211q0 -106 -61.5 -168t-163.5 -62q-242 0 -242 332zM176 1253q0 -178 103 -178q96 0 96 111 q0 55 -22.5 77.5t-71.5 22.5q-58 0 -105 -33z" />
<glyph unicode="&#x2077;" horiz-adv-x="540" d="M53 1491v127h426v-158l-217 -499l-143 26l211 461v43h-277z" />
<glyph unicode="&#x2078;" horiz-adv-x="540" d="M27 1153q0 119 102 162q-92 33 -92 149q0 174 233 174q236 0 236 -174q0 -123 -90 -151q98 -27 98 -152q0 -111 -63 -157q-59 -45 -181 -46q-243 0 -243 195zM164 1155q0 -84 106 -84q109 0 109 90q0 70 -80 94h-55q-80 -24 -80 -100zM170 1452q0 -63 74 -90h55 q74 25 74 88q0 76 -103 76q-100 0 -100 -74z" />
<glyph unicode="&#x2079;" horiz-adv-x="540" d="M35 1413q0 109 63 166q66 59 166 59q242 0 242 -342q0 -182 -59.5 -260t-194.5 -78q-40 0 -86 7q-51 6 -76 12l-29 6l9 109q92 -12 170 -13q129 0 129 146q-68 -25 -125 -25q-96 0 -154 57q-55 56 -55 156zM170 1415q0 -45 24.5 -75.5t67.5 -30.5q10 0 47 8q29 6 45 14 l19 8q-2 180 -105 181q-98 -1 -98 -105z" />
<glyph unicode="&#x2080;" horiz-adv-x="540" d="M31 319.5q0 184.5 61.5 262t182 77.5t182 -77.5t61.5 -262t-61.5 -262t-180.5 -77.5q-123 0 -184 77.5t-61 262zM166 319q0 -127 27 -172q29 -47 83 -47q57 0 82 47q25 46 25 172q0 121 -24.5 170.5t-84.5 49.5q-57 0 -81 -50q-27 -53 -27 -170z" />
<glyph unicode="&#x2081;" horiz-adv-x="540" d="M61 496l209 143h123v-639h-131v496l-139 -97z" />
<glyph unicode="&#x2082;" horiz-adv-x="540" d="M45 0v115l180 176q104 102 105 170q0 74 -101 74q-63 0 -172 -21l-6 121q123 25 211 24q109 0 156 -45q49 -46 49 -141q0 -117 -127 -231l-125 -123h260v-119h-430z" />
<glyph unicode="&#x2083;" horiz-adv-x="540" d="M51 0l10 115q106 -14 205 -15q100 0 101 84q0 86 -95 86h-135v111h133q29 0 53.5 26.5t24.5 63.5q0 68 -92 68l-186 -15l-11 115q115 20 209 20q217 0 217 -172q0 -102 -82 -153q49 -14 74 -49t25 -107q0 -199 -219 -198q-45 0 -103 6q-88 10 -94 10z" />
<glyph unicode="&#x2084;" horiz-adv-x="540" d="M31 98v113l141 428h143l-149 -420h151l13 180h119v-180h53v-121h-53v-98h-132v98h-286z" />
<glyph unicode="&#x2085;" horiz-adv-x="540" d="M61 10l11 113q117 -23 194 -23q96 0 96 101q0 92 -81 92q-23 0 -52 -6q-23 -4 -41 -17l-14 -8l-102 12l20 365h383v-117h-274l-11 -145q49 31 117 31q193 0 193 -203q0 -109 -60 -164q-61 -57 -159 -57q-43 0 -99 6q-53 6 -88 12z" />
<glyph unicode="&#x2086;" horiz-adv-x="540" d="M41 311q0 181 61 264q61 84 195 84q34 0 80 -6q74 -10 76 -10l28 -4l-8 -111q-101 12 -172 13q-61 0 -92 -35q-29 -33 -33 -115l19 6l23.5 7.5t25.5 7.5q27 8 53 8q211 0 211 -211q0 -106 -61.5 -167.5t-163.5 -61.5q-242 -1 -242 331zM176 274q0 -178 103 -178 q96 0 96 111q0 55 -22.5 77.5t-71.5 22.5q-58 0 -105 -33z" />
<glyph unicode="&#x2087;" horiz-adv-x="540" d="M53 512v127h426v-158l-217 -499l-143 26l211 461v43h-277z" />
<glyph unicode="&#x2088;" horiz-adv-x="540" d="M27 174q0 119 102 162q-92 33 -92 149q0 174 233 174q236 0 236 -174q0 -123 -90 -151q98 -27 98 -152q0 -111 -63 -157q-59 -45 -181 -45q-243 -1 -243 194zM164 176q0 -84 106 -84q109 0 109 90q0 70 -80 94h-55q-80 -24 -80 -100zM170 473q0 -63 74 -90h55 q74 25 74 88q0 76 -103 76q-100 0 -100 -74z" />
<glyph unicode="&#x2089;" horiz-adv-x="540" d="M35 434q0 109 63 166q66 59 166 59q242 0 242 -342q0 -180 -60 -258q-61 -80 -194 -79q-40 0 -86 6q-51 6 -76 12l-29 6l9 109q92 -12 170 -13q129 0 129 146q-68 -25 -125 -25q-98 0 -153.5 55.5t-55.5 157.5zM170 436q0 -45 24.5 -75.5t67.5 -30.5q10 0 47 8 q29 6 45 14l19 8q-2 180 -105 181q-98 -1 -98 -105z" />
<glyph unicode="&#x20ac;" horiz-adv-x="1134" d="M61 457v127h121q-2 18 -2 94t2 98h-121v127h129q25 250 135.5 364.5t364.5 114.5q188 0 363 -39l-6 -141q-186 27 -340 27q-180 0 -256 -76q-78 -78 -97 -250l553 -2v-125h-563v-192l563 -2v-125h-553q18 -170 97 -248q76 -76 260 -76q123 0 336 29l6 -144 q-195 -39 -363 -38q-256 0 -366 114q-113 115 -134 363h-129z" />
<glyph unicode="&#x2122;" d="M14 1188v102h410v-102h-135v-508h-113v508h-162zM487 678v612h146l137 -426l143 426h146v-612h-107v459l-135 -428h-88l-135 428v-459h-107z" />
<glyph unicode="&#x2211;" horiz-adv-x="1703" />
<glyph unicode="&#x2212;" d="M68 537v143h946v-143h-946z" />
<glyph unicode="&#x221e;" horiz-adv-x="1087" d="M45 598q0 172 64 260q66 90 188 90q90 0 147 -47q53 -45 101 -147q43 101 98 147q57 47 150 47q123 0 188 -90q63 -88 63 -260q0 -350 -256 -350q-86 0 -143 47q-55 47 -98 143q-47 -113 -98.5 -151.5t-147.5 -38.5q-256 0 -256 350zM190 598q0 -205 117 -205q25 0 49 10 q18 8 33 19q12 10 29 35q23 37 24.5 41t9 20.5l13.5 30.5l20 49l-20 49.5t-13.5 30.5l-9.5 20t-24 41q-16 25 -29 35q-14 10 -33 19q-25 10 -49 10q-117 0 -117 -205zM604 598q2 -2 6 -14.5t15 -34.5l13 -30.5t9 -20.5q6 -14 23 -41q14 -23 30 -35q10 -8 35 -18.5t47 -10.5 q115 0 115 205t-115 205q-25 0 -49 -10q-18 -8 -33 -19q-16 -12 -30 -35q-16 -27 -23 -41q-2 -4 -9 -20l-13 -31q-10 -23 -14.5 -35t-6.5 -14z" />
<glyph unicode="&#x2248;" d="M129 410q6 6 35 30q23 20 82 49q61 31 112 31q66 0 199 -51t180 -51q35 0 84 24q47 23 84 47l33 25l14 -147q-4 -4 -32 -29q-25 -20 -78 -49q-55 -29 -107 -29q-68 0 -203 51t-180 51q-37 0 -90 -24q-47 -23 -84 -49l-33 -25zM131 799q6 6 35 30q23 20 82 50 q61 31 112 30q66 0 199 -51t180 -51q35 0 84 24q53 27 84 50l33 22l14 -147q-4 -4 -32 -29q-18 -16 -78 -47q-57 -31 -107 -31q-68 0 -203 51.5t-180 51.5q-39 0 -90 -25q-47 -23 -84 -49l-33 -25z" />
<glyph unicode="&#x2260;" d="M92 690v141h506l141 322l131 -53l-118 -269h252v-141h-314l-115 -262h431v-143h-492l-141 -320l-131 53l116 267h-264v143h326l117 262h-445z" />
<glyph unicode="&#x2264;" d="M164 82v151h727v-151h-727zM164 635v192l727 291v-162l-580 -221l580 -235v-166z" />
<glyph unicode="&#x2265;" d="M195 82v151h735v-151h-735zM195 334v166l587 235l-587 221v162l735 -291v-192z" />
<glyph unicode="&#xe000;" horiz-adv-x="1025" d="M0 1025h1025v-1025h-1025v1025z" />
<glyph horiz-adv-x="479" />
<glyph horiz-adv-x="1099" d="M207 0v1495h72v-534q174 82 352 81q203 0 276 -116q72 -113 72 -391q0 -299 -96.5 -426t-370.5 -127q-139 0 -305 18zM279 59q160 -12 231 -12q129 0 207 26.5t119 94.5q43 72 55 147q12 83 12 215q0 246 -53 344q-55 102 -219 103q-86 0 -170 -21q-98 -25 -135 -41 l-47 -20v-836z" />
<glyph horiz-adv-x="1282" d="M211 0v1434h491q209 0 311.5 -84t102.5 -265q0 -272 -198 -346q254 -70 253 -338q0 -221 -110 -311q-113 -90 -320 -90h-530zM285 70h456q168 0 263 75q92 74 92 256q0 297 -371 297h-440v-628zM285 766h440q163 0 240 80q76 78 75 239q0 150 -82 213q-84 66 -256 66 h-417v-598z" />
<glyph horiz-adv-x="980" d="M72 1024h75l299 -958h89l301 958h75l-321 -1024h-201z" />
<glyph horiz-adv-x="931" d="M78 0l346 512l-346 512h82l307 -457l307 457h82l-346 -512l346 -512h-84l-305 457l-305 -457h-84z" />
<glyph d="M94 690q0 371 129 526.5t375 155.5q174 0 328 -39l-8 -67q-147 37 -320 37q-209 0 -317 -136q-109 -137 -109 -446q0 4 57 31q68 31 156 59q92 29 178 29q428 0 428 -414q0 -444 -438 -444q-238 0 -348.5 178t-110.5 530zM170 649q2 -295 94 -448q88 -150 289 -150 q197 0 278 92q82 90 82 283q0 168 -79.5 256t-274.5 88q-174 -6 -385 -119z" />
<glyph d="M96 928q0 213 113 327q115 117 334 117q231 0 340 -178q109 -180 108 -530q0 -369 -123 -527q-123 -156 -364 -155q-74 0 -164 12q-106 14 -137 20l-51 11l12 65q164 -39 340 -39q207 0 309 139.5t102 452.5q0 -4 -57 -31q-53 -25 -156 -57q-98 -31 -178 -31 q-219 0 -323 109q-105 108 -105 295zM174 928q0 -152 86 -244q84 -90 268 -90q174 6 385 119l5 2q-10 588 -375 588q-369 0 -369 -375z" />
<glyph horiz-adv-x="1335" d="M211 0v1434h586q119 0 209 -72q86 -70 131 -186q39 -102 59 -224q18 -108 18 -215q0 -53 -8 -159q-4 -63 -32 -189q-27 -115 -66 -192q-41 -78 -125 -140q-78 -57 -186 -57h-586zM285 70h512q92 0 157 57q72 61 103 133q35 82 53 180q20 113 23 170q4 86 4 127 q0 74 -15 160q-18 106 -47 205q-35 115 -106 186q-76 76 -172 76h-512v-1294z" />
<glyph d="M211 0v1434h74v-1364h698v-70h-772z" />
<glyph horiz-adv-x="0" />
<glyph d="M59 1165q0 143 52 207q53 66 165.5 66t163.5 -64q53 -66 54 -211q0 -283 -218 -282q-111 0 -164 69.5t-53 214.5zM131 1165q0 -113 33 -166t112 -53q82 0 113 53q33 55 33 164q0 106 -33 160q-31 49 -113 49q-78 0 -112 -51q-33 -47 -33 -156zM381 12l295 1424l74 -15 l-295 -1423zM635 285q0 143 51 207q53 66 166 65q111 0 164 -65.5t53 -208.5q0 -283 -217 -283q-111 0 -164 68q-53 70 -53 217zM707 284.5q0 -110.5 32 -163.5q35 -55 113 -55q82 0 113 53q33 55 32 164q0 106 -32 159q-31 49 -113 50q-78 0 -113 -50q-32 -47 -32 -157.5z " />
<glyph d="M279 938l225 164l-223 164l41 55l225 -166l86 264l65 -20l-86 -266h277v-70h-281l86 -264l-65 -21l-86 266l-226 -161z" />
<glyph horiz-adv-x="530" d="M10 616q0 172 51 412q47 223 99 369l49 139h72q-27 -72 -54 -158q-29 -92 -86 -346q-55 -246 -55 -416q0 -341 178 -829l17 -43h-72l-55 139q-31 82 -88 320q-56 231 -56 413z" />
<glyph horiz-adv-x="530" d="M-8 -246q39 109 55 158q23 76 84 344q55 246 55 418q0 341 -178 829l-16 43h71l56 -139q31 -82 88 -320q55 -231 55 -413q0 -181 -49 -411.5t-98 -368.5l-52 -140h-71z" />
<glyph horiz-adv-x="581" d="M0 602v66q117 28 166 86q47 55 47 159q0 27 -6 125q-8 131 -8 138q0 182 84 270q80 82 276 92l4 -65q-172 -10 -231 -78q-61 -72 -62 -219q0 -37 6 -125l9 -119q0 -135 -45 -195q-47 -63 -160 -100q115 -37 160 -100.5t45 -190.5l-15 -237q0 -145 62 -218q61 -70 231 -79 l-4 -66q-199 10 -278 92q-82 84 -82 271q0 14 8 137q6 92 6 114q0 100 -47 153.5t-166 88.5z" />
<glyph horiz-adv-x="1931" d="M123 711q0 379 119 559q121 182 430 182q221 0 301 -18h837v-74h-763v-586h641v-74h-641v-626h763v-74h-833v-2q-76 -16 -305 -16q-168 0 -273 45q-106 45 -168 143q-59 96 -84 223q-24 130 -24 318zM201 711q0 -174 18 -287q18 -109 70 -203q49 -90 143 -129 q98 -41 240 -41q218 0 301 19v1288q-80 25 -301 24q-143 0 -237.5 -43t-143.5 -135q-53 -100 -70 -205q-20 -128 -20 -288zM973 1358l2 -680v680h-2z" />
<glyph horiz-adv-x="1703" d="M469 434v66h379v477h-379v65h379v392h72v-392h378v-65h-378v-477h378v-66h-378v-434h-72v434h-379z" />
<glyph horiz-adv-x="788" d="M10 1397q231 55 340 55q201 0 307 -76q102 -72 103 -248q0 -98 -41 -174q-43 -80 -103 -139q-59 -57 -120 -110q-55 -47 -103 -115q-41 -59 -41 -123v-78h-71v84q0 70 43 137.5t102 120.5l119 113q57 57 100 131t43 153q0 139 -84 199q-82 57 -254 57q-100 0 -330 -57z M276 2v164h82v-164h-82z" />
<glyph horiz-adv-x="286" d="M51 0v164h82v-164h-82zM51 705v163h82v-163h-82z" />
<glyph horiz-adv-x="346" d="M-12 -252l84 430h86l-107 -430h-63zM66 705v163h81v-163h-81z" />
<glyph horiz-adv-x="612" d="M98 1534h375v-66h-301v-1654h301v-66h-373z" />
<glyph horiz-adv-x="612" d="M104 -186h302v1654h-302v66h375l-2 -1786h-373v66z" />
<glyph horiz-adv-x="202" d="M-41 1413h244l-10 -471h-230z" />
<glyph horiz-adv-x="724" d="M68 1413h243l-10 -471h-229zM391 1413h244l-10 -471h-230z" />
<glyph horiz-adv-x="1431" d="M78 426q0 180 78 270q76 88 256 142q-70 76 -86 133q-18 61 -19 155q0 133 80 213q82 82 234 82q162 0 237 -80q76 -78 76 -217q0 -145 -78 -229t-260 -143l383 -379q43 131 63 299h72q-27 -219 -80 -353l287 -280l-49 -53l-268 266q-135 -270 -455 -270 q-258 0 -364.5 112.5t-106.5 331.5zM150 428q0 -190 94 -284.5t309 -94.5q281 0 397 254l-485 481q-175 -46 -246 -122q-69 -76 -69 -234zM379 1126q0 -160 92 -252l74 -73q176 61 248 129q70 68 69 196q0 229 -241.5 229t-241.5 -229z" />
<glyph horiz-adv-x="1165" d="M233 0v70h189v696h-141v65h141v195q0 215 67.5 291t212.5 76q77 0 246 -25v-65q-178 25 -246 24q-109 0 -159 -63q-49 -61 -49 -238v-195h372v-65h-372v-696h356l168 32l14 -65l-166 -35z" />
<glyph horiz-adv-x="1212" d="M139 502v69h127q-2 23 -2 107q0 100 2 127h-127v69h131q23 262 131 388q111 125 373 124q184 0 359 -38l-7 -72q-193 41 -352 41q-225 0 -317 -107q-90 -104 -109 -336l637 -2v-67h-641q-2 -27 -2 -127q0 -84 2 -107l641 -2v-67h-639q16 -238 107 -344q92 -106 321 -107 q141 0 352 41l7 -69q-201 -41 -359 -41q-262 0 -373 124q-113 129 -131 396h-131z" />
<glyph horiz-adv-x="1703" d="M504 1407l71 29l617 -1407l-72 -29z" />
<glyph horiz-adv-x="1062" d="M55 -70h877v-69h-877v69z" />
<glyph horiz-adv-x="1257" d="M211 0v1434h522q213 0 320 -103q104 -102 104 -329.5t-96 -352.5q-94 -123 -328 -123h-448v-526h-74zM285 596h448q346 0 346 405q0 188 -86 275q-88 88 -260 88h-448v-768z" />
<glyph d="M6 684v74h688v-74h-688zM309 285v164h82v-164h-82zM309 989v164h82v-164h-82z" />
<glyph horiz-adv-x="837" d="M-100 479v70h475v475h74v-475h479v-70h-479v-479h-74v479h-475z" />
<glyph horiz-adv-x="899" d="M123 541v69h655v-69h-655z" />
<glyph d="M129 602v74l711 469v-80l-645 -422l645 -444v-84q-633 430 -711 487z" />
<glyph d="M2 702v70h1034v-70h-1034zM4 356v70h1034v-70h-1034z" />
<glyph d="M129 115v84l645 444l-645 422v80l711 -469v-74z" />
<glyph d="M94 25l568 1413l67 -29l-567 -1411z" />
<glyph horiz-adv-x="1792" d="M123 535q0 287 94 395q96 113 326 112q301 0 377 -245q88 246 372 245q193 0 291 -116.5t98 -374.5v-68h-727q0 -223 70 -329.5t242 -106.5q143 0 372 19l4 -66q-229 -18 -378 -18q-270 4 -346 219q-37 -115 -125 -166q-90 -53 -250 -53q-248 0 -334 118q-86 122 -86 435 zM199 535q0 -141 12 -226q14 -90 47 -149q37 -63 104.5 -88t180.5 -25q115 0 180 27q68 29 102.5 96.5t42.5 144.5q10 88 11 215q0 243 -80 344q-80 102 -256 103q-197 0 -270.5 -92t-73.5 -350zM954 549h652q0 231 -74 329.5t-240 98.5q-338 0 -338 -428z" />
<glyph horiz-adv-x="1837" d="M72 0l514 1434h1130v-70h-764v-590h641v-69h-641v-635h764v-70h-837v440h-566l-159 -440h-82zM338 510h541v854h-236z" />
<glyph horiz-adv-x="1341" d="M94 711q0 379 119 559q121 182 430 182q170 0 287 -57l106 227l68 -29l-113 -237q109 -84 156 -244q45 -154 45 -401q0 -393 -115 -559q-117 -170 -434 -170q-162 0 -274 47l-119 -256l-68 26l123 264q-117 78 -164 236q-47 160 -47 412zM172 711q0 -230 37 -369 q39 -143 129 -211l559 1196q-98 55 -254 55q-143 0 -237 -43q-96 -43 -146 -135q-49 -94 -67 -205q-21 -128 -21 -288zM399 94q98 -43 244 -43q150 0 242 37q90 37 141 125q51 90 70 203q18 114 18 295q0 430 -156 573z" />
<glyph horiz-adv-x="1693" d="M113 281q0 143 63.5 206.5t218.5 87.5l389 41v107q0 250 -227 250q-152 0 -385 -19l-4 68q213 20 389 20q236 0 285 -196q100 197 352 196q195 0 293 -116q96 -115 96 -375v-68h-727q0 -223 69.5 -329.5t241.5 -106.5q143 0 373 19l4 -66q-229 -18 -379 -18 q-205 4 -293 118l-77 -32q-190 -86 -422 -86q-260 0 -260 299zM188 280.5q0 -112.5 50 -174.5q47 -59 137 -59q84 0 198 25q119 27 175 45q76 27 94 35q-61 119 -62 360v37l-377 -37q-111 -8 -163 -66q-52 -53 -52 -165.5zM856 549h651q0 229 -75 330q-74 98 -238 98 q-338 0 -338 -428z" />
<glyph d="M102 498q0 545 435 544q217 0 327.5 -122.5t110.5 -423.5q0 -279 -115 -398q-115 -117 -321 -116q-203 0 -320 116.5t-117 399.5zM248 500q0 -218 74 -301q74 -84 219 -84q147 0 217 82q72 84 71 299q0 244 -69 327q-71 86 -221 86q-141 0 -217 -88q-74 -85 -74 -321z " />
<glyph d="M190 791l388 233h129v-1024h-146v858l-311 -184z" />
<glyph d="M182 0v129l350 289q129 100 181 168q51 66 51 147q0 96 -57 133q-61 39 -193 39q-53 0 -125 -8q-76 -8 -137 -18l-59 -11l-11 131q219 43 371 43q365 0 365 -292q0 -123 -54 -197q-53 -76 -176 -172l-309 -248h563v-133h-760z" />
<glyph d="M199 23l18 131q213 -31 379 -31q238 4 238 174q0 92 -64 129q-66 37 -170 43h-258v129h256q88 2 147 41q57 37 58 121q0 80 -55 114q-53 33 -164 33q-164 0 -355 -30l-16 131q212 37 369 36q178 0 272 -59t94 -197q0 -34 -6 -61q-4 -23 -16 -49q-8 -18 -27 -41 q-20 -25 -27 -31q-12 -12 -30 -24q-6 -4 -15.5 -9.5t-11.5 -7.5l-24 -10q-4 -2 -10 -6q-3 -3 -5 -2q90 -29 146 -86q57 -61 57 -172q0 -152 -102.5 -229.5t-280.5 -77.5q-66 0 -174 10q-68 6 -162 20z" />
<glyph d="M119 190v113l319 721h154l-313 -694h409v272h146v-272h108v-140h-108v-231h-146v231h-569z" />
<glyph d="M184 31l19 131q250 -41 389 -41q231 0 231 207q0 186 -233 186q-113 0 -281 -72l-110 25l37 561h702v-147h-571l-27 -295q135 63 266 63q373 0 373 -313q0 -170 -100 -262q-101 -92 -283 -92q-74 0 -178 12q-102 12 -168 24z" />
<glyph d="M156 520q0 522 430 522q43 0 149 -8q86 -6 125 -14l47 -8l-10 -123q-180 25 -311 24q-137 0 -211 -77q-76 -80 -76 -263q0 2 47 21q45 18 121 37q74 18 123 18q375 0 375 -327q0 -163 -111 -252q-113 -90 -301 -90q-397 -1 -397 540zM299 451q6 -342 262 -342 q258 0 258 213q0 102 -57 147t-184 45q-121 -4 -279 -63z" />
<glyph d="M145 895v131h703v-174l-438 -870l-127 36l424 836v41h-562z" />
<glyph d="M121 266q0 115 49 170.5t143 100.5q-172 70 -172 237q0 268 389 268q395 0 396 -270q0 -168 -183 -235q98 -39 150 -95q51 -53 51 -168q0 -295 -414 -294q-409 -1 -409 286zM266 276q0 -96 67.5 -133t196.5 -37q135 0 201 39q68 39 68 140q0 86 -45 123q-51 41 -142 63 h-172q-84 -20 -131 -68q-43 -43 -43 -127zM287 764q0 -78 35 -113q37 -37 118 -61h172q90 23 127 59q41 41 41 113q0 154 -250 153q-123 0 -184 -36q-59 -35 -59 -115z" />
<glyph d="M133 702q0 163 105 252q106 90 282 90q406 0 406 -530q0 -532 -430 -532q-66 0 -154 10q-104 12 -125 16l-43 10l12 123q172 -29 310 -28q281 0 280 342q-141 -70 -278 -70q-182 0 -273 82q-92 81 -92 235zM279 705q0 -190 229 -191q132 6 264 68q-6 334 -256 333 q-237 1 -237 -210z" />
<glyph d="M496 -121v1555h71v-1555h-71z" />
<glyph horiz-adv-x="892" d="M25 506q0 399 356 434v270h72v-266l237 -22l-4 -72q-141 16 -233 20v-712l237 16l4 -72q-162 -18 -241 -18v-260h-72v260q-188 10 -272 100.5t-84 321.5zM106 506q0 -195 60 -266q58 -71 215 -80v706q-139 -16 -207 -100q-68 -86 -68 -260z" />
<glyph d="M125 696v70h506l147 334l72 -29l-135 -305h280v-70h-311l-135 -309h448v-70h-479l-147 -337l-72 28l135 309h-307v70h338l135 309h-475z" />
<glyph horiz-adv-x="1103" d="M51 1352h84l420 -633l414 633h86l-391 -604h344v-70h-390l-26 -41v-195h418v-69h-418v-373h-74v373h-420v69h420v195l-26 41h-396v70h350z" />
<glyph d="M184 -512v1536h72v-528q0 -270 49 -359q49 -90 215 -90q174 0 332 100l4 3v874h72v-1024h-72v82l-17.5 -9t-31.5 -18q-27 -16 -121 -45q-92 -29 -166 -28q-194 0 -264 104v-598h-72z" />
<glyph d="M143 -496l4 68q126 -6 185 -6q94 0 141 69.5t47 229.5v856h-141v65h141v228q0 365 260 364l191 -6l-4 -65q-168 4 -187 4q-188 0 -188 -299v-226h332v-65h-332v-856q0 -201 -64 -283q-66 -84 -196 -84z" />
<glyph horiz-adv-x="346" d="M-12 -252l86 430h82l-105 -430h-63z" />
<glyph horiz-adv-x="505" d="M201 0v164h82v-164h-82z" />
<glyph horiz-adv-x="346" d="M8 1079l82 410h78l-98 -410h-62z" />
<glyph horiz-adv-x="1703" d="M240 1073q0 160 110 260q109 100 271 101h712v-68h-198v-1366h-74v1366h-352v-1366h-74v717h-14q-160 0 -270.5 98t-110.5 258z" />
<glyph horiz-adv-x="581" d="M-2 -197q172 10 231 78q61 70 62 219q0 6 -8 125q-6 90 -7 119q0 135 46 195q47 63 159 100q-115 37 -160 100.5t-45 190.5l15 237q0 147 -61.5 217t-231.5 80l4 66q197 -10 277 -92q84 -88 83 -271q0 -14 -8 -137q-6 -92 -6 -115q0 -100 47 -153t166 -88v-66 q-117 -28 -166 -86q-47 -55 -47 -160q0 -27 6 -124q8 -131 8 -138q0 -182 -83 -270q-80 -82 -277 -92z" />
<glyph horiz-adv-x="346" d="M-45 1079l98 410h62l-82 -410h-78z" />
<glyph horiz-adv-x="0" d="M178 344q0 51 10 102q8 41 23 74q12 27 41 60q37 41 43 47q8 8 53 43l53 43l-41 32l-41 33l-32 29q-25 20 -31 35l-20 35q-18 29 -20.5 45t-8.5 51q-6 27 -6 63q0 340 481 340q489 0 489 -342q0 -29 -4 -69q-4 -37 -16 -60q-12 -20 -21 -43q-4 -10 -34 -41l-22 -22 l-11 -13q-18 -18 -45 -38q-41 -33 -47 -35l61 -47q57 -43 66 -54l45 -57q31 -41 39 -82q10 -51 10 -106q0 -213 -133 -304q-131 -88 -377 -88q-504 0 -504 369zM481 418q0 -152 201 -152q207 0 207 152q0 104 -113 155h-180q-66 -31 -90.5 -67.5t-24.5 -87.5zM504 963 q0 -6 1 -14.5t1 -10.5q0 -12 6 -20q2 -4 4 -9.5t2 -7.5l6 -6q6 -4 8 -6q12 -12 16.5 -14.5t22.5 -14.5l25 -16h180q12 8 23 14q6 4 11 9t7 5q2 2 8 6.5t9 6.5q12 8 14 12t8 10t6 15q0 6 4 18q2 6 2 23q0 68 -39 94q-41 29 -143 28q-104 0 -143 -30.5t-39 -91.5z" />
<glyph horiz-adv-x="731" d="M43 774v248h121v266l274 21v-287h252v-248h-252v-387q0 -72 2 -88q2 -23 23 -43q18 -18 61 -18l156 4l12 -236q-138 -31 -209 -31q-184 0 -252 82q-68 83 -67 308v409h-121z" />
<glyph horiz-adv-x="899" d="M123 461v229h655v-229h-655z" />
<glyph horiz-adv-x="505" d="M92 0v291h270v-291h-270z" />
<glyph d="M2 217v270h1036v-270h-1036zM2 641v270h1034v-270h-1034z" />
<glyph horiz-adv-x="1062" d="M55 31h877v-271h-877v271z" />
<glyph horiz-adv-x="692" d="M49 545v188q213 53 213 185q0 27 -6 124q-8 131 -8 138q0 184 90 268q86 80 311 90v-229q-96 -10 -119 -37q-27 -33 -26 -113q0 -8 8 -115q6 -80 6 -108q0 -135 -45 -194.5t-160 -100.5q117 -40 160 -98q45 -61 45 -193q0 -31 -6 -106q-8 -102 -8 -111q0 -84 26 -117 q27 -31 119 -41v-229q-223 8 -311 94q-90 86 -90 273q0 14 8 137q6 92 6 115q0 121 -213 180z" />
<glyph horiz-adv-x="581" d="M-219 -33q96 10 119 37q27 33 26 113q0 8 -8 114q-6 80 -6 109q0 135 45 194.5t160 100.5q-117 40 -160 98q-45 61 -45 193q0 29 6 106q8 102 8 111q0 84 -26 117q-27 31 -119 40v230q223 -8 311 -94q90 -86 90 -273q0 -14 -8 -137q-6 -92 -6 -115q0 -121 213 -180v-188 q-213 -53 -213 -185q0 -27 6 -125q8 -131 8 -137q0 -184 -90 -268q-86 -80 -311 -90v229z" />
<glyph horiz-adv-x="837" d="M-100 389v250h387v385h250v-385h391v-250h-391v-389h-250v389h-387z" />
<glyph horiz-adv-x="540" d="M31 114.5q0 184.5 61.5 262.5t182 78t182 -78t61.5 -262.5t-61.5 -262t-180.5 -77.5q-123 0 -184 77.5t-61 262zM166 115q0 -127 27 -172q29 -47 83 -47q57 0 82 47q25 46 25 172q0 121 -24.5 170t-84.5 49q-57 0 -81 -49q-27 -53 -27 -170z" />
<glyph horiz-adv-x="540" d="M61 291l209 143h123v-639h-131v496l-139 -96z" />
<glyph horiz-adv-x="540" d="M45 -90l180 176q104 102 105 170q0 74 -101 74q-63 0 -172 -21l-6 121q123 25 211 25q109 0 156 -45q49 -45 49 -142q0 -117 -127 -231l-125 -123h260v-119h-430v115z" />
<glyph horiz-adv-x="540" d="M51 -205l10 115q106 -14 205 -14q100 0 101 84q0 86 -95 86h-135v110h133q29 0 53.5 26.5t24.5 63.5q0 68 -92 68l-186 -15l-11 115q115 20 209 21q217 0 217 -172q0 -102 -82 -154q49 -14 74 -49t25 -107q0 -199 -219 -198q-45 0 -103 6q-16 2 -48 4t-46 4z" />
<glyph horiz-adv-x="540" d="M31 6l141 428h143l-149 -420h151l13 181h119v-181h53v-120h-53v-99h-132v99h-286v112z" />
<glyph horiz-adv-x="540" d="M61 -195l11 113q117 -23 194 -22q96 0 96 100q0 92 -81 92q-23 0 -52 -6q-23 -4 -41 -16l-14 -9l-102 13l20 364h383v-117h-274l-11 -145q49 31 117 31q193 0 193 -203q0 -111 -60 -166q-58 -55 -159 -55q-43 0 -99 6q-53 6 -88 12z" />
<glyph horiz-adv-x="540" d="M41 106q0 178 61 265q59 84 195 84q34 0 80 -6q74 -10 76 -11l28 -4l-8 -110q-101 12 -172 12q-61 0 -92 -35q-29 -33 -33 -115l19 7q6 2 23.5 7t25.5 7q27 8 53 8q211 0 211 -211q0 -106 -61.5 -167.5t-163.5 -61.5q-242 -1 -242 331zM176 70q0 -178 103 -179 q96 0 96 111q0 55 -22.5 77.5t-71.5 22.5q-52 1 -105 -32z" />
<glyph horiz-adv-x="540" d="M53 307v127h426v-158l-217 -499l-143 26l211 461v43h-277z" />
<glyph horiz-adv-x="540" d="M27 -31q0 119 102 162q-92 33 -92 150q0 174 233 174q236 0 236 -174q0 -123 -90 -152q98 -27 98 -152q0 -111 -63 -157q-59 -45 -181 -45q-243 -1 -243 194zM164 -29q0 -84 106 -84q109 0 109 90q0 70 -80 95h-55q-80 -25 -80 -101zM170 268q0 -63 74 -90h55 q74 25 74 88q0 76 -103 76q-100 0 -100 -74z" />
<glyph horiz-adv-x="540" d="M35 229q0 104 63 166q61 59 166 60q242 0 242 -342q0 -180 -60 -258q-61 -80 -194 -80q-40 0 -86 6q-51 6 -76 12l-29 6l9 109q92 -12 170 -12q129 0 129 145q-68 -25 -125 -25q-98 0 -153.5 55.5t-55.5 157.5zM170 231q0 -47 25 -77q23 -29 67 -29q20 0 47 6q23 4 45 16 l19 9q-2 180 -105 180q-98 -1 -98 -105z" />
<glyph horiz-adv-x="1521" d="M176 0v233h166v-233h-166zM696 0v233h168v-233h-168zM1219 0v233h165v-233h-165z" />
<glyph horiz-adv-x="788" d="M16 -76q0 98 39 178q37 78 99 136q76 72 114 102q61 49 99 96q39 51 39 105v77h161v-83q0 -70 -41 -136q-43 -70 -96 -114l-113 -97q-61 -53 -98 -114q-39 -63 -39 -135q0 -115 61.5 -164t209.5 -49q45 0 124 12q84 12 140 24l57 13l19 -152q-233 -55 -345 -55 q-223 0 -325 82q-105 84 -105 274zM401 788v234h168v-234h-168z" />
<glyph horiz-adv-x="788" d="M29 334q0 92 41 178q39 80 96 135q61 59 115 101q58 46 98 98q39 51 39 104v78h162v-84q0 -74 -39 -137q-39 -61 -99 -113l-114 -96q-55 -49 -95 -113q-41 -66 -40 -137q0 -115 63 -166q59 -47 207 -47q47 0 127 12q76 12 137 25l57 12l19 -151q-233 -55 -344 -56 q-223 0 -326 82q-104 85 -104 275zM414 1198v234h168v-234h-168z" />
<glyph horiz-adv-x="788" d="M29 334q0 92 41 178q39 80 96 135q61 59 115 101q58 46 98 98q39 51 39 104v78h162v-84q0 -74 -39 -137q-39 -61 -99 -113l-114 -96q-55 -49 -95 -113q-41 -66 -40 -137q0 -115 63 -166q59 -47 207 -47q47 0 127 12q76 12 137 25l57 12l19 -151q-233 -55 -344 -56 q-223 0 -326 82q-104 85 -104 275zM414 1198v234h168v-234h-168z" />
<glyph horiz-adv-x="1024" d="M0 545v143h1024v-143h-1024z" />
<glyph horiz-adv-x="2048" d="M0 545v143h2048v-143h-2048z" />
<glyph horiz-adv-x="505" d="M158 571v234h166v-234h-166z" />
<glyph d="M471 1034v234h168v-234h-168zM473 -164l4 957h158l4 -957h-166z" />
<glyph horiz-adv-x="530" d="M74 678q0 181 49 411.5t98 368.5l51 139h162q-35 -96 -55 -159q-23 -76 -84 -344q-55 -246 -55 -416q0 -341 178 -830l16 -43h-162l-55 140q-31 82 -88 319q-55 232 -55 414z" />
<glyph horiz-adv-x="530" d="M66 -184q35 96 55 159q31 98 86 344q53 238 53 416q0 341 -178 830l-16 43h161l56 -140q31 -82 88 -319q55 -231 55 -414q0 -181 -49 -411.5t-98 -368.5l-52 -139h-161z" />
<glyph horiz-adv-x="612" d="M84 -190v1785h430v-147h-274v-1491h274v-147h-430z" />
<glyph horiz-adv-x="612" d="M80 -43h274v1491h-274v147h430v-1785h-430v147z" />
<glyph horiz-adv-x="626" d="M20 633v131q114 28 160 80q45 51 45 141q0 8 -1 23.5l-3 45l-4 56.5q-6 98 -6 137q0 188 90 271q90 80 303 90l2 -148q-135 -8 -184 -57t-49 -164q0 -2 8 -129q6 -95 6 -123q0 -129 -45 -188q-46 -61 -160 -99q115 -37 160 -100t45 -190q0 -4 -6 -101q-8 -127 -8 -137 q0 -114 49 -166q47 -51 184 -59l-2 -148q-209 9 -301 92q-92 84 -92 267q0 43 6 135l4 52.5l3 41.5t1 21q0 92 -45 143t-160 82z" />
<glyph horiz-adv-x="626" d="M8 -61q133 8 185 59q49 49 49 162q0 34 -6 129l-4.5 54.5t-3.5 44.5t-1 24q0 129 45 188q46 61 160 98q-115 37 -160 100.5t-45 190.5q0 2 1 13.5l3 35t5 52.5q6 94 6 137q0 114 -49 166q-47 51 -185 59l2 147q209 -9 301 -92q92 -82 92 -266q0 -12 -8 -135 q-6 -92 -6 -115q0 -90 45 -141q47 -53 160 -84v-131q-114 -28 -160 -80q-45 -51 -45 -141q0 -25 6 -123q8 -131 8 -139q0 -187 -92 -271q-90 -82 -301 -90z" />
<glyph horiz-adv-x="481" d="M16 1774l58 141l446 -193l-51 -127z" />
<glyph horiz-adv-x="481" d="M37 1774l57 141l447 -193l-52 -127z" />
<glyph horiz-adv-x="481" d="M20 1731l447 194l55 -143l-450 -176z" />
<glyph horiz-adv-x="481" d="M25 1731l446 194l55 -143l-450 -176z" />
<glyph horiz-adv-x="944" d="M111 1636l272 277h137l273 -277h-179l-161 154l-160 -154h-182z" />
<glyph horiz-adv-x="481" d="M-59 1636l272 277h137l273 -277h-179l-161 154l-160 -154h-182z" />
<glyph horiz-adv-x="481" d="M-72 1909h183l159 -156l162 156h178l-272 -275h-135z" />
<glyph horiz-adv-x="481" d="M-74 1909h183l159 -156l162 156h178l-272 -275h-135z" />
<glyph horiz-adv-x="481" d="M-76 1788q113 123 199 123q57 0 182 -56q131 -57 150 -57q20 0 57 23q35 23 70 49l28 22l37 -116q-106 -119 -188 -119q-55 0 -178 57.5t-156 57.5q-23 0 -64 -25q-39 -25 -69 -51l-31 -25z" />
<glyph horiz-adv-x="481" d="M-76 1788q113 123 199 123q57 0 182 -56q131 -57 150 -57q20 0 57 23q35 23 70 49l28 22l37 -116q-106 -119 -188 -119q-55 0 -178 57.5t-156 57.5q-23 0 -64 -25q-39 -25 -69 -51l-31 -25z" />
<glyph horiz-adv-x="481" d="M-31 1679v185h150v-185h-150zM393 1679v185h148v-185h-148z" />
<glyph horiz-adv-x="481" d="M-31 1679v185h150v-185h-150zM393 1679v185h148v-185h-148z" />
<glyph horiz-adv-x="481" d="M-45 1671v135h637v-135h-637z" />
<glyph horiz-adv-x="481" d="M-45 1671v135h637v-135h-637z" />
<glyph horiz-adv-x="481" d="M-43 1896h158q2 -63 49 -100q45 -37 115 -37q74 0 118 37q43 35 47 100h158q-6 -121 -94 -194q-90 -74 -229 -74q-143 0 -229.5 73.5t-92.5 194.5z" />
<glyph horiz-adv-x="481" d="M-43 1896h158q2 -63 49 -100q45 -37 115 -37q74 0 118 37q43 35 47 100h158q-6 -121 -94 -194q-90 -74 -229 -74q-143 0 -229.5 73.5t-92.5 194.5z" />
<glyph horiz-adv-x="481" d="M27 1602q0 98 69 157q66 57 174.5 57.5t173.5 -57.5q68 -59 68 -157q0 -101 -68 -160q-66 -57 -174 -58q-111 0 -176 58q-67 58 -67 160zM152 1602q0 -49 32 -78q29 -27 86 -27q55 0 84 27q33 29 33 78t-31 75q-29 27 -86 27t-86 -27q-32 -28 -32 -75z" />
<glyph horiz-adv-x="481" d="M14 1602q0 98 70 157q66 57 174.5 57.5t173.5 -57.5q68 -59 68 -157q0 -101 -68 -160q-66 -57 -174 -58q-111 0 -176 58q-68 58 -68 160zM139 1601.5q0 -49.5 31 -77.5q29 -27 88 -27q55 0 84 27q33 29 33 78t-31 75q-29 27 -86 27q-59 0 -88 -27q-31 -26 -31 -75.5z" />
<glyph horiz-adv-x="481" d="M-90 1616l291 270l118 -74l-296 -264zM322 1616l290 268l121 -74l-299 -264z" />
<glyph horiz-adv-x="481" d="M-90 1616l291 270l118 -74l-296 -264zM322 1616l290 268l121 -74l-299 -264z" />
<glyph horiz-adv-x="481" d="M166 1599v179h151v-179h-151z" />
<glyph horiz-adv-x="481" d="M166 1599v179h151v-179h-151z" />
<glyph horiz-adv-x="540" d="M31 1093.5q0 184.5 61.5 262.5t182 78t182 -78t61.5 -262.5t-61.5 -262t-180.5 -77.5q-123 0 -184 77.5t-61 262zM166 1094q0 -127 27 -172q29 -47 83 -48q57 0 82 46q25 47 25 174q0 121 -24.5 170t-84.5 49q-57 0 -81 -49q-27 -53 -27 -170z" />
<glyph horiz-adv-x="540" d="M53 1270l209 143h123v-639h-131v496l-139 -96z" />
<glyph horiz-adv-x="540" d="M45 774v115l180 176q104 102 105 170q0 74 -101 74q-63 0 -172 -21l-6 121q123 25 211 25q109 0 156 -45q49 -46 49 -142q0 -117 -127 -231l-125 -123h260v-119h-430z" />
<glyph horiz-adv-x="540" d="M51 774l10 115q106 -14 205 -15q100 0 101 84q0 86 -95 86h-135v111h133q29 0 53.5 26.5t24.5 63.5q0 68 -92 68l-186 -15l-11 115q115 20 209 21q217 0 217 -172q0 -102 -82 -154q49 -14 74 -49t25 -107q0 -199 -219 -198q-45 0 -103 6q-16 2 -48 4t-46 4z" />
<glyph horiz-adv-x="540" d="M31 872v113l141 428h143l-149 -420h151l13 181h119v-181h53v-121h-53v-98h-132v98h-286z" />
<glyph horiz-adv-x="540" d="M61 784l11 113q117 -23 194 -23q96 0 96 101q0 92 -81 92q-23 0 -52 -6q-23 -4 -41 -17l-14 -8l-102 13l20 364h383v-117h-274l-11 -145q49 31 117 31q193 0 193 -203q0 -111 -60 -166q-58 -55 -159 -55q-43 0 -99 6q-53 6 -88 12z" />
<glyph horiz-adv-x="540" d="M41 1085q0 178 61 265q59 84 195 84q49 0 80 -4q43 -6 76 -13l28 -4l-8 -110q-101 12 -172 12q-61 0 -92 -35q-29 -33 -33 -115l19 6l23.5 7.5t25.5 7.5q27 8 53 8q211 0 211 -211q0 -106 -61.5 -167.5t-163.5 -61.5q-242 -1 -242 331zM176 1049q0 -178 103 -179 q96 0 96 111q0 55 -22.5 77.5t-71.5 22.5q-52 1 -105 -32z" />
<glyph horiz-adv-x="540" d="M53 1286v127h426v-158l-217 -499l-143 26l211 461v43h-277z" />
<glyph horiz-adv-x="540" d="M27 948q0 119 102 162q-92 33 -92 150q0 174 233 174q236 0 236 -174q0 -123 -90 -152q98 -27 98 -152q0 -111 -63 -157q-59 -45 -181 -45q-243 -1 -243 194zM164 950q0 -84 106 -84q109 0 109 90q0 70 -80 95h-55q-80 -25 -80 -101zM170 1247q0 -63 74 -90h55 q74 25 74 88q0 76 -103 76q-100 0 -100 -74z" />
<glyph horiz-adv-x="540" d="M35 1208q0 104 63 166q61 59 166 60q242 0 242 -342q0 -180 -60 -258q-61 -80 -194 -80q-40 0 -86 6q-51 6 -76 12l-29 6l9 109q92 -12 170 -13q129 0 129 146q-68 -25 -125 -25q-98 0 -153.5 55.5t-55.5 157.5zM170 1210q0 -47 25 -77q23 -29 67 -29q20 0 47 6 q23 4 45 16l19 9q-2 180 -105 180q-98 -1 -98 -105z" />
</font>
</defs>
</svg>
